Sgt. Stubby: An American Hero (2018)

PG | 1h 24min | Animation, Adventure, Family | 13 April 2018 (USA)

The true story of a stray dog who joins his new master on the battlefields of the First World War. For his valorous actions, Sgt. Stubby is still recognized as the most decorated dog in American history.

Watch trailer

Media information

General
Format : Matroska
Format version : Version 4
File size : 681 MiB
Duration : 1 h 24 min
Overall bit rate : 1 128 kb/s
Movie name : Sgt.Stubby.An.American.Hero.2018.720p.WEB-DL.2CH.x264.AVC
Encoded date : UTC 2018-09-13 22:36:05
Writing application : mkvmerge v26.0.0 (‘In The Game’) 32-bit
Writing library : libebml v1.3.6 + libmatroska v1.4.9

Video
ID : 1
Format : AVC
Format/Info : Advanced Video Codec
Format profile : [email protected]
Format settings : CABAC / 4 Ref Frames
Format settings, CABAC : Yes
Format settings, RefFrames : 4 frames
Codec ID : V_MPEG4/ISO/AVC
Duration : 1 h 24 min
Bit rate : 1 000 kb/s
Width : 1 280 pixels
Height : 688 pixels
Display aspect ratio : 1.85:1
Frame rate mode : Constant
Frame rate : 23.976 (24000/1001) FPS
Color space : YUV
Chroma subsampling : 4:2:0
Bit depth : 8 bits
Scan type : Progressive
Bits/(Pixel*Frame) : 0.047
Stream size : 603 MiB (88%)
Default : Yes
Forced : No
Color range : Limited
Color primaries : BT.709
Transfer characteristics : BT.709
Matrix coefficients : BT.709

Audio
ID : 2
Format : AAC LC SBR
Commercial name : HE-AAC
Format settings : NBC
Codec ID : A_AAC-5
Duration : 1 h 24 min
Bit rate : 128 kb/s
Channel(s) : 2 channels
Channel layout : L R
Sampling rate : 48.0 kHz
Frame rate : 23.438 FPS (2048 SPF)
Compression mode : Lossy
Delay relative to video : -105 ms
Stream size : 77.3 MiB (11%)
Language : English
Default : Yes
Forced : No

[collapse]
Download Link(s)

Download

No subs are available

Direct download files get automatically deleted after a month or so. Posted on : 09/14/2018

[collapse]
Magnet Link

Magnet

Source : Sgt.Stubby.An.American.Hero.2018.720p.WEB-DL.DD5.1.H264-FGT-2.63 GB

[collapse]

You may also like...

error: nah :p~