Spy Cat (2018)

Marnies Welt (original title)|1h 32min | Animation, Adventure, Family | 18 April 2019 (Germany)

Four crazy antiheroes on the run. Their leader is the unworldly innocent, naive Marnie, a house cat who is not allowed to leave the house and only knows about real life from television. Based loosely on Grimms “The Bremen Town Musicians” a modern, hilarious road movie is told.

Watch trailer

Media information

General
Format : Matroska
Format version : Version 4
File size : 750 MiB
Duration : 1 h 28 min
Overall bit rate : 1 181 kb/s
Movie name : Spy.Cat.2019.720p.WEB-DL.2CH.x264.AVC
Encoded date : UTC 2019-07-03 14:54:08
Writing application : mkvmerge v35.0.0 (‘All The Love In The World’) 32-bit
Writing library : libebml v1.3.9 + libmatroska v1.5.2

Video
ID : 1
Format : AVC
Format/Info : Advanced Video Codec
Format profile : [email protected]
Format settings : CABAC / 5 Ref Frames
Format settings, CABAC : Yes
Format settings, Reference frames : 5 frames
Codec ID : V_MPEG4/ISO/AVC
Duration : 1 h 28 min
Bit rate : 1 116 kb/s
Width : 1 280 pixels
Height : 694 pixels
Display aspect ratio : 1.85:1
Frame rate mode : Constant
Frame rate : 25.000 FPS
Color space : YUV
Chroma subsampling : 4:2:0
Bit depth : 8 bits
Scan type : Progressive
Bits/(Pixel*Frame) : 0.050
Stream size : 708 MiB (94%)
Default : Yes
Forced : No

Audio
ID : 2
Format : AAC LC SBR
Commercial name : HE-AAC
Format settings : Explicit
Codec ID : A_AAC-2
Duration : 1 h 28 min
Bit rate : 64.0 kb/s
Channel(s) : 2 channels
Channel layout : L R
Sampling rate : 48.0 kHz
Frame rate : 23.438 FPS (2048 SPF)
Compression mode : Lossy
Delay relative to video : 43 ms
Stream size : 40.6 MiB (5%)
Language : English
Default : Yes
Forced : No

[collapse]
Download Link(s)

Download

No subs are available

Direct download files get automatically deleted after a month or so. Posted on : 06/04/2019

[collapse]
Magnet Link

Magnet

Spy.Cat.2019.720p.WEB-DL-750MB

[collapse]

You may also like...

error: nah :p~