Stick Man (2015)

Not Rated | 27min | Animation, Short, Adventure | TV Short 25 December 2015

Stick Man lives in the family tree with his Stick Lady Love and their stick children three, and he’s heading on an epic adventure across the seasons. Will he get back to his family in time for Christmas?

Watch trailer

Media information

General
Format : Matroska
Format version : Version 4
File size : 319 MiB
Duration : 26 min 27 s
Overall bit rate : 1 688 kb/s
Movie name : Stick.Man.2015.1080p.BrRip.6CH.x265.HEVC
Encoded date : UTC 2019-02-03 16:02:56
Writing application : mkvmerge v30.1.0 (‘Forever And More’) 32-bit
Writing library : libebml v1.3.6 + libmatroska v1.4.9

Video
ID : 1
Format : HEVC
Format/Info : High Efficiency Video Coding
Format profile : [email protected]@Main
Codec ID : V_MPEGH/ISO/HEVC
Duration : 26 min 27 s
Bit rate : 1 467 kb/s
Width : 1 920 pixels
Height : 1 080 pixels
Display aspect ratio : 16:9
Frame rate mode : Constant
Frame rate : 25.000 FPS
Color space : YUV
Chroma subsampling : 4:2:0
Bit depth : 8 bits
Bits/(Pixel*Frame) : 0.028
Stream size : 278 MiB (87%)
Default : Yes
Forced : No

Audio
ID : 2
Format : AAC LC SBR
Commercial name : HE-AAC
Format settings : Explicit
Codec ID : A_AAC-2
Duration : 26 min 27 s
Bit rate : 219 kb/s
Channel(s) : 6 channels
Channel layout : C L R Ls Rs LFE
Sampling rate : 48.0 kHz
Frame rate : 23.438 FPS (2048 SPF)
Compression mode : Lossy
Delay relative to video : 23 ms
Stream size : 41.4 MiB (13%)
Language : English
Default : Yes
Forced : No

Text
ID : 3
Format : UTF-8
Codec ID : S_TEXT/UTF8
Codec ID/Info : UTF-8 Plain Text
Duration : 24 min 40 s
Bit rate : 22 b/s
Count of elements : 146
Stream size : 4.13 KiB (0%)
Language : English
Default : Yes
Forced : No

[collapse]
Download Link(s)

Download

Direct download files get automatically deleted after a month or so. Posted on : 02/03/2019

[collapse]
Magnet Link

Magnet

Stick.Man.2015.1080p.BluRay.x264-GUACAMOLE-2.18 GB

[collapse]

Media information

General
Format : Matroska
Format version : Version 4
File size : 157 MiB
Duration : 26 min 27 s
Overall bit rate : 831 kb/s
Movie name : Stick.Man.2015.720p.BrRip.2CH.x265.HEVC
Encoded date : UTC 2019-02-03 16:01:10
Writing application : mkvmerge v30.1.0 (‘Forever And More’) 32-bit
Writing library : libebml v1.3.6 + libmatroska v1.4.9

Video
ID : 1
Format : HEVC
Format/Info : High Efficiency Video Coding
Format profile : [email protected]@Main
Codec ID : V_MPEGH/ISO/HEVC
Duration : 26 min 27 s
Bit rate : 757 kb/s
Width : 1 280 pixels
Height : 720 pixels
Display aspect ratio : 16:9
Frame rate mode : Constant
Frame rate : 25.000 FPS
Color space : YUV
Chroma subsampling : 4:2:0
Bit depth : 8 bits
Bits/(Pixel*Frame) : 0.033
Stream size : 143 MiB (91%)
Default : Yes
Forced : No

Audio
ID : 2
Format : AAC LC SBR
Commercial name : HE-AAC
Format settings : Explicit
Codec ID : A_AAC-2
Duration : 26 min 27 s
Bit rate : 72.0 kb/s
Channel(s) : 2 channels
Channel layout : L R
Sampling rate : 48.0 kHz
Frame rate : 23.438 FPS (2048 SPF)
Compression mode : Lossy
Delay relative to video : 23 ms
Stream size : 13.7 MiB (9%)
Language : English
Default : Yes
Forced : No

Text
ID : 3
Format : UTF-8
Codec ID : S_TEXT/UTF8
Codec ID/Info : UTF-8 Plain Text
Duration : 24 min 40 s
Bit rate : 22 b/s
Count of elements : 146
Stream size : 4.13 KiB (0%)
Language : English
Default : Yes
Forced : No

[collapse]
Download Link(s)

Download

Direct download files get automatically deleted after a month or so. Posted on : 02/03/2019

[collapse]
Magnet Link

Magnet

Stick.Man.2015.1080p.BluRay.x264-GUACAMOLE-2.18 GB

[collapse]

You may also like...

error: nah :p~