The Death and Return of Superman (2019)

2h 46min | Animation, Action, Sci-Fi | Video 1 October 2019

The Death of Superman (2018) and Reign of the Supermen (2019) now presented as an over two-hour unabridged and seamless animated feature.

Watch trailer

Media information

General
Format : Matroska
Format version : Version 4
File size : 782 MiB
Duration : 2 h 46 min
Overall bit rate : 657 kb/s
Movie name : The.Death.and.Return.of.Superman.2019.1080p.10bit.BluRay.6CH.x265.HEVC
Encoded date : UTC 2019-11-14 21:34:16
Writing application : mkvmerge v40.0.0 (‘Old Town Road + Pony’) 32-bit
Writing library : libebml v1.3.9 + libmatroska v1.5.2

Video
ID : 1
Format : HEVC
Format/Info : High Efficiency Video Coding
Format profile : Main [email protected]@Main
Codec ID : V_MPEGH/ISO/HEVC
Duration : 2 h 46 min
Bit rate : 448 kb/s
Width : 1 920 pixels
Height : 1 080 pixels
Display aspect ratio : 16:9
Frame rate mode : Constant
Frame rate : 23.976 (24000/1001) FPS
Color space : YUV
Chroma subsampling : 4:2:0
Bit depth : 10 bits
Bits/(Pixel*Frame) : 0.009
Stream size : 533 MiB (68%)
Default : Yes
Forced : No

Audio
ID : 2
Format : AAC LC SBR
Commercial name : HE-AAC
Format settings : Explicit
Codec ID : A_AAC-2
Duration : 2 h 46 min
Bit rate : 207 kb/s
Channel(s) : 6 channels
Channel layout : C L R Ls Rs LFE
Sampling rate : 48.0 kHz
Frame rate : 23.438 FPS (2048 SPF)
Compression mode : Lossy
Delay relative to video : 23 ms
Stream size : 246 MiB (31%)
Language : English
Default : Yes
Forced : No

Text
ID : 3
Format : UTF-8
Codec ID : S_TEXT/UTF8
Codec ID/Info : UTF-8 Plain Text
Duration : 2 h 45 min
Bit rate : 56 b/s
Count of elements : 2327
Stream size : 68.4 KiB (0%)
Language : English
Default : Yes
Forced : No

[collapse]
Download Link(s)

Download

Direct download files get automatically deleted after a month or so. Posted on : 11/15/2019

[collapse]
Magnet Link

Magnet

The.Death.and.Return.of.Superman.2019.1080p.BluRay.REMUX.AVC.DTS-HD.MA.5.1-FGT-21.19 GB

[collapse]

Media information

General
Format : Matroska
Format version : Version 4
File size : 561 MiB
Duration : 2 h 46 min
Overall bit rate : 471 kb/s
Movie name : The.Death.and.Return.of.Superman.2019.720p.10bit.BluRay.6CH.x265.HEVC
Encoded date : UTC 2019-11-14 21:32:36
Writing application : mkvmerge v40.0.0 (‘Old Town Road + Pony’) 32-bit
Writing library : libebml v1.3.9 + libmatroska v1.5.2

Video
ID : 1
Format : HEVC
Format/Info : High Efficiency Video Coding
Format profile : Main [email protected]@Main
Codec ID : V_MPEGH/ISO/HEVC
Duration : 2 h 46 min
Bit rate : 262 kb/s
Width : 1 280 pixels
Height : 720 pixels
Display aspect ratio : 16:9
Frame rate mode : Constant
Frame rate : 23.976 (24000/1001) FPS
Color space : YUV
Chroma subsampling : 4:2:0
Bit depth : 10 bits
Bits/(Pixel*Frame) : 0.012
Stream size : 312 MiB (56%)
Default : Yes
Forced : No

Audio
ID : 2
Format : AAC LC SBR
Commercial name : HE-AAC
Format settings : Explicit
Codec ID : A_AAC-2
Duration : 2 h 46 min
Bit rate : 207 kb/s
Channel(s) : 6 channels
Channel layout : C L R Ls Rs LFE
Sampling rate : 48.0 kHz
Frame rate : 23.438 FPS (2048 SPF)
Compression mode : Lossy
Delay relative to video : 23 ms
Stream size : 246 MiB (44%)
Language : English
Default : Yes
Forced : No

Text
ID : 3
Format : UTF-8
Codec ID : S_TEXT/UTF8
Codec ID/Info : UTF-8 Plain Text
Duration : 2 h 45 min
Bit rate : 56 b/s
Count of elements : 2327
Stream size : 68.4 KiB (0%)
Language : English
Default : Yes
Forced : No

[collapse]
Download Link(s)

Download

Direct download files get automatically deleted after a month or so. Posted on : 11/15/2019

[collapse]
Magnet Link

Magnet

The.Death.and.Return.of.Superman.2019.1080p.BluRay.REMUX.AVC.DTS-HD.MA.5.1-FGT-21.19 GB

[collapse]

Media information

General
Format : Matroska
Format version : Version 4
File size : 549 MiB
Duration : 2 h 46 min
Overall bit rate : 461 kb/s
Movie name : The.Death.and.Return.of.Superman.2019.720p.WEB-DL.2CH.x265.HEVC
Encoded date : UTC 2019-10-02 12:54:59
Writing application : mkvmerge v37.0.0 (‘Leave It’) 32-bit
Writing library : libebml v1.3.9 + libmatroska v1.5.2

Video
ID : 1
Format : HEVC
Format/Info : High Efficiency Video Coding
Format profile : [email protected]@Main
Codec ID : V_MPEGH/ISO/HEVC
Duration : 2 h 46 min
Bit rate : 394 kb/s
Width : 1 280 pixels
Height : 720 pixels
Display aspect ratio : 16:9
Frame rate mode : Constant
Frame rate : 23.976 (24000/1001) FPS
Color space : YUV
Chroma subsampling : 4:2:0
Bit depth : 8 bits
Bits/(Pixel*Frame) : 0.018
Stream size : 469 MiB (86%)
Default : Yes
Forced : No
Color range : Limited
Color primaries : BT.709
Transfer characteristics : BT.709
Matrix coefficients : BT.709

Audio
ID : 2
Format : AAC LC
Codec ID : A_AAC-2
Duration : 2 h 46 min
Bit rate : 64.4 kb/s
Channel(s) : 2 channels
Channel layout : L R
Sampling rate : 48.0 kHz
Frame rate : 46.875 FPS (1024 SPF)
Compression mode : Lossy
Delay relative to video : -63 ms
Stream size : 76.7 MiB (14%)
Title : Stereo
Language : English
Default : Yes
Forced : No

Text
ID : 3
Format : UTF-8
Codec ID : S_TEXT/UTF8
Codec ID/Info : UTF-8 Plain Text
Duration : 2 h 45 min
Bit rate : 56 b/s
Count of elements : 2329
Stream size : 68.5 KiB (0%)
Language : English
Default : Yes
Forced : No

[collapse]
Download Link(s)

Download

Direct download files get automatically deleted after a month or so. Posted on : 10/02/2019

[collapse]
Magnet Link

Magnet

The.Death.and.Return.of.Superman.2019.1080p.WEB-DL.DD5.1.H264-FGT- 6.40 GB

[collapse]

You may also like...

error: nah :p~