The Death of Superman (2018)

PG-13 | 1h 21min | Animation, Action, Sci-Fi | Video 24 July 2018

Superman battles against an insurmountable foe named Doomsday.

Watch trailer

Media information

General
Format : Matroska
Format version : Version 4 / Version 2
File size : 650 MiB
Duration : 1 h 20 min
Overall bit rate : 1 123 kb/s
Movie name : The.Death.of.Superman.2018.720p.WEB-DL.2CH.x264.AVC
Encoded date : UTC 2018-06-23 10:52:06
Writing application : mkvmerge v24.0.0 (‘Beyond The Pale’) 32-bit
Writing library : libebml v1.3.6 + libmatroska v1.4.9

Video
ID : 1
Format : AVC
Format/Info : Advanced Video Codec
Format profile : [email protected]
Format settings : CABAC / 4 Ref Frames
Format settings, CABAC : Yes
Format settings, RefFrames : 4 frames
Codec ID : V_MPEG4/ISO/AVC
Duration : 1 h 20 min
Bit rate : 1 000 kb/s
Width : 1 280 pixels
Height : 718 pixels
Display aspect ratio : 16:9
Frame rate mode : Constant
Frame rate : 23.976 (24000/1001) FPS
Color space : YUV
Chroma subsampling : 4:2:0
Bit depth : 8 bits
Scan type : Progressive
Bits/(Pixel*Frame) : 0.045
Stream size : 574 MiB (88%)
Default : Yes
Forced : No
Color range : Limited
Color primaries : BT.709
Transfer characteristics : BT.709
Matrix coefficients : BT.709

Audio
ID : 2
Format : AAC
Format/Info : Advanced Audio Codec
Format profile : HE-AAC / LC
Format settings : NBC
Codec ID : A_AAC-5
Duration : 1 h 20 min
Bit rate : 128 kb/s
Channel(s) : 2 channels
Channel positions : Front: L R
Sampling rate : 48.0 kHz / 24.0 kHz
Frame rate : 23.438 FPS (1024 SPF)
Compression mode : Lossy
Delay relative to video : -105 ms
Stream size : 74.1 MiB (11%)
Language : English
Default : Yes
Forced : No

[collapse]
Download Link(s)

Download

No subs are available

Direct download files get automatically deleted after a month or so. Posted on : 06/23/2018

[collapse]
Magnet Link

Magnet

Source : The.Death.of.Superman.2018.1080p.WEB-DL.DD5.1.H264-FGT- 3.13 GB

[collapse]

You may also like...

error: nah :p~