The Hunchback of Notre Dame (1996)

G | 1h 31min | Animation, Drama, Family | 21 June 1996 (USA)

A deformed bell-ringer must assert his independence from a vicious government minister in order to help his friend, a gypsy dancer.

Watch trailer

Media information

General
Format : Matroska
Format version : Version 4
File size : 751 MiB
Duration : 1 h 30 min
Overall bit rate : 1 155 kb/s
Movie name : The.Hunchback.of.Notre.Dame.1996.720p.BluRay.2CH.x264.AVC
Encoded date : UTC 2019-03-18 19:25:40
Writing application : mkvmerge v32.0.0 (‘Astral Progressions’) 32-bit
Writing library : libebml v1.3.7 + libmatroska v1.5.0
Cover : Yes
Attachments : cover.jpg

Video
ID : 1
Format : AVC
Format/Info : Advanced Video Codec
Format profile : [email protected]
Format settings : CABAC / 8 Ref Frames
Format settings, CABAC : Yes
Format settings, RefFrames : 8 frames
Codec ID : V_MPEG4/ISO/AVC
Duration : 1 h 30 min
Bit rate : 1 060 kb/s
Width : 1 280 pixels
Height : 720 pixels
Display aspect ratio : 16:9
Frame rate mode : Constant
Frame rate : 23.976 (24000/1001) FPS
Color space : YUV
Chroma subsampling : 4:2:0
Bit depth : 8 bits
Scan type : Progressive
Bits/(Pixel*Frame) : 0.048
Stream size : 689 MiB (92%)
Default : Yes
Forced : No

Audio
ID : 2
Format : AAC LC
Codec ID : A_AAC-2
Duration : 1 h 30 min
Bit rate : 87.9 kb/s
Channel(s) : 2 channels
Channel layout : L R
Sampling rate : 48.0 kHz
Frame rate : 46.875 FPS (1024 SPF)
Compression mode : Lossy
Delay relative to video : 9 ms
Stream size : 57.2 MiB (8%)
Language : English
Default : Yes
Forced : No

Text
ID : 3
Format : VobSub
Muxing mode : zlib
Codec ID : S_VOBSUB
Duration : 1 h 29 min
Bit rate : 9 954 b/s
Count of elements : 1168
Stream size : 6.39 MiB (1%)
Language : English
Default : Yes
Forced : No

[collapse]
Download Link(s)

Download

Direct download files get automatically deleted after a month or so. Posted on : 03/18/2019

[collapse]
Magnet Link

Magnet

The.Hunchback.of.Notre.Dame.1996.1080p.BluRay.X264-AMIABLE-4.41 GB

[collapse]

You may also like...

error: nah :p~