The Incredibles (2004)

PG | 1h 55min | Animation, Action, Adventure | 5 November 2004 (USA)

A family of undercover superheroes, while trying to live the quiet suburban life, are forced into action to save the world.

Watch trailer

Media information

General
Format : Matroska
Format version : Version 4 / Version 2
File size : 700 MiB
Duration : 1 h 55 min
Overall bit rate : 848 kb/s
Movie name : The.Incredibles.2004.720p.BluRay.2CH.x265.HEVC
Encoded date : UTC 2018-08-01 11:27:21
Writing application : mkvmerge v25.0.0 (‘Prog Noir’) 32-bit
Writing library : libebml v1.3.6 + libmatroska v1.4.9

Video
ID : 2
Format : HEVC
Format/Info : High Efficiency Video Coding
Format profile : [email protected]@Main
Codec ID : V_MPEGH/ISO/HEVC
Duration : 1 h 55 min
Bit rate : 782 kb/s
Width : 1 280 pixels
Height : 536 pixels
Display aspect ratio : 2.40:1
Frame rate mode : Constant
Frame rate : 23.976 (24000/1001) FPS
Color space : YUV
Chroma subsampling : 4:2:0
Bit depth : 8 bits
Bits/(Pixel*Frame) : 0.048
Stream size : 646 MiB (92%)
Default : Yes
Forced : No
Color range : Limited
Color primaries : BT.709
Transfer characteristics : BT.709
Matrix coefficients : BT.709

Audio
ID : 1
Format : AAC
Format/Info : Advanced Audio Codec
Format profile : HE-AAC / LC
Format settings : Explicit
Codec ID : A_AAC-2
Duration : 1 h 55 min
Bit rate : 64.0 kb/s
Channel(s) : 2 channels
Channel positions : Front: L R
Sampling rate : 48.0 kHz / 24.0 kHz
Frame rate : 23.438 FPS (1024 SPF)
Compression mode : Lossy
Delay relative to video : -4 ms
Stream size : 52.8 MiB (8%)
Default : Yes
Forced : No

Text
ID : 3
Format : UTF-8
Codec ID : S_TEXT/UTF8
Codec ID/Info : UTF-8 Plain Text
Duration : 1 h 47 min
Bit rate : 84 b/s
Count of elements : 1335
Stream size : 66.6 KiB (0%)
Default : Yes
Forced : No

[collapse]
Download Link(s)

Download

Direct download files get automatically deleted after a month or so. Posted on : 08/01/2018

[collapse]
Magnet Link

Magnet

Source : The.Incredibles.2004.1080p.BluRay.X264-AMIABLE-6.63 GB

[collapse]

You may also like...

error: nah :p~