The Queen’s Corgi (2019)

1h 25min | Animation, Comedy, Family | 3 April 2019 (Belgium)

The British monarch’s (Dame Julie Walters’) favorite dog gets lost from the palace and finds himself at a dog fight club. He then begins his long journey to find his way back home.

Watch trailer

Media information

General
Format : Matroska
Format version : Version 4
File size : 850 MiB
Duration : 1 h 25 min
Overall bit rate : 1 394 kb/s
Movie name : The.Queens.Corgi.2019.720p.BluRay.2CH.x264.AVC
Encoded date : UTC 2019-05-27 10:51:25
Writing application : mkvmerge v34.0.0 (‘Sight and Seen’) 32-bit
Writing library : libebml v1.3.7 + libmatroska v1.5.0

Video
ID : 1
Format : AVC
Format/Info : Advanced Video Codec
Format profile : [email protected]
Format settings : CABAC / 8 Ref Frames
Format settings, CABAC : Yes
Format settings, Reference frames : 8 frames
Codec ID : V_MPEG4/ISO/AVC
Duration : 1 h 25 min
Bit rate : 1 265 kb/s
Width : 1 280 pixels
Height : 720 pixels
Display aspect ratio : 16:9
Frame rate mode : Constant
Frame rate : 24.000 FPS
Color space : YUV
Chroma subsampling : 4:2:0
Bit depth : 8 bits
Scan type : Progressive
Bits/(Pixel*Frame) : 0.057
Stream size : 771 MiB (91%)
Default : Yes
Forced : No

Audio
ID : 2
Format : AAC LC SBR
Commercial name : HE-AAC
Format settings : Explicit
Codec ID : A_AAC-2
Duration : 1 h 25 min
Bit rate : 128 kb/s
Channel(s) : 2 channels
Channel layout : L R
Sampling rate : 48.0 kHz
Frame rate : 23.438 FPS (2048 SPF)
Compression mode : Lossy
Delay relative to video : 43 ms
Stream size : 78.1 MiB (9%)
Title : DTS
Language : English
Default : No
Forced : No

[collapse]
Download Link(s)

Download

No subs are available

Direct download files get automatically deleted after a month or so. Posted on : 05/27/2019

[collapse]
Magnet Link

Magnet

The.Queens.Corgi.2019.1080p.BluRay.x264.DTS-HD.MA.5.1-FGT-8.43 GB

[collapse]

You may also like...

error: nah :p~