The Secret Life of Pets 2 (2019)

PG | 1h 26min | Animation, Adventure, Comedy | 7 June 2019 (USA)

Continuing the story of Max and his pet friends, following their secret lives after their owners leave them for work or school each day.

Watch trailer

Media information

General
Format : Matroska
Format version : Version 4
File size : 543 MiB
Duration : 1 h 26 min
Overall bit rate : 883 kb/s
Movie name : The.Secret.Life.of.Pets.2.2019.720p.WEB-DL.2CH.x265.HEVC
Encoded date : UTC 2019-08-13 12:47:57
Writing application : mkvmerge v36.0.0 (‘Is That Jazz?’) 32-bit
Writing library : libebml v1.3.9 + libmatroska v1.5.2

Video
ID : 1
Format : HEVC
Format/Info : High Efficiency Video Coding
Format profile : [email protected]@Main
Codec ID : V_MPEGH/ISO/HEVC
Duration : 1 h 26 min
Bit rate : 807 kb/s
Width : 1 280 pixels
Height : 688 pixels
Display aspect ratio : 1.85:1
Frame rate mode : Constant
Frame rate : 23.976 (24000/1001) FPS
Color space : YUV
Chroma subsampling : 4:2:0
Bit depth : 8 bits
Bits/(Pixel*Frame) : 0.038
Stream size : 497 MiB (91%)
Default : Yes
Forced : No

Audio
ID : 2
Format : AAC LC SBR
Commercial name : HE-AAC
Format settings : Explicit
Codec ID : A_AAC-2
Duration : 1 h 26 min
Bit rate : 74.1 kb/s
Channel(s) : 2 channels
Channel layout : L R
Sampling rate : 48.0 kHz
Frame rate : 23.438 FPS (2048 SPF)
Compression mode : Lossy
Delay relative to video : 23 ms
Stream size : 45.6 MiB (8%)
Language : English
Default : Yes
Forced : No

Text
ID : 3
Format : UTF-8
Codec ID : S_TEXT/UTF8
Codec ID/Info : UTF-8 Plain Text
Duration : 1 h 25 min
Bit rate : 53 b/s
Count of elements : 1325
Stream size : 33.3 KiB (0%)
Language : English
Default : Yes
Forced : No

[collapse]
Download Link(s)

Download

Direct download files get automatically deleted after a month or so. Posted on : 08/14/2019

[collapse]
Magnet Link

Magnet

The.Secret.Life.of.Pets.2.2019.1080p.WEB-DL.DD5.1.H264-FGT-3.32 GB

[collapse]

You may also like...

error: nah :p~