Wonder Woman: Bloodlines (2019)

PG-13 | 1h 23min | Animation, Fantasy | 5 October 2019 (USA)

The plot is unknown. This is the first DC animated film to feature the character in a starring role since Wonder Woman (2009).

Watch trailer

Media information

General
Format : Matroska
Format version : Version 4
File size : 181 MiB
Duration : 1 h 22 min
Overall bit rate : 306 kb/s
Movie name : Wonder.Woman.Bloodlines.2019.720p.WEB-DL.2CH.x265.HEVC
Encoded date : UTC 2019-10-06 09:31:56
Writing application : mkvmerge v37.0.0 (‘Leave It’) 32-bit
Writing library : libebml v1.3.9 + libmatroska v1.5.2

Video
ID : 1
Format : HEVC
Format/Info : High Efficiency Video Coding
Format profile : [email protected]@Main
Codec ID : V_MPEGH/ISO/HEVC
Duration : 1 h 22 min
Bit rate : 231 kb/s
Width : 1 280 pixels
Height : 720 pixels
Display aspect ratio : 16:9
Frame rate mode : Constant
Frame rate : 23.976 (24000/1001) FPS
Color space : YUV
Chroma subsampling : 4:2:0
Bit depth : 8 bits
Bits/(Pixel*Frame) : 0.010
Stream size : 137 MiB (76%)
Default : Yes
Forced : No
Color range : Limited
Color primaries : BT.709
Transfer characteristics : BT.709
Matrix coefficients : BT.709

Audio
ID : 2
Format : AAC LC SBR
Commercial name : HE-AAC
Format settings : Explicit
Codec ID : A_AAC-2
Duration : 1 h 22 min
Bit rate : 72.0 kb/s
Channel(s) : 2 channels
Channel layout : L R
Sampling rate : 48.0 kHz
Frame rate : 23.438 FPS (2048 SPF)
Compression mode : Lossy
Delay relative to video : 23 ms
Stream size : 43.2 MiB (24%)
Language : English
Default : Yes
Forced : No

Text
ID : 3
Format : UTF-8
Codec ID : S_TEXT/UTF8
Codec ID/Info : UTF-8 Plain Text
Duration : 1 h 20 min
Bit rate : 47 b/s
Count of elements : 965
Stream size : 27.6 KiB (0%)
Language : English
Default : Yes
Forced : No

[collapse]
Download Link(s)

Download

Direct download files get automatically deleted after a month or so. Posted on : 10/06/2019

[collapse]
Magnet Link

Magnet

Wonder.Woman.Bloodlines.2019.1080p.WEB-DL.DD5.1.H264-FGT-3.01 GB

[collapse]

Media information

General
Format : Matroska
Format version : Version 4
File size : 734 MiB
Duration : 1 h 22 min
Overall bit rate : 1 238 kb/s
Movie name : Wonder.Woman.Bloodlines.2019.720p.WEB-DL.2CH.x264.AVC
Encoded date : UTC 2019-10-05 13:40:41
Writing application : mkvmerge v37.0.0 (‘Leave It’) 32-bit
Writing library : libebml v1.3.9 + libmatroska v1.5.2

Video
ID : 1
Format : AVC
Format/Info : Advanced Video Codec
Format profile : [email protected]
Format settings : CABAC / 4 Ref Frames
Format settings, CABAC : Yes
Format settings, Reference frames : 4 frames
Codec ID : V_MPEG4/ISO/AVC
Duration : 1 h 22 min
Bit rate : 1 100 kb/s
Width : 1 280 pixels
Height : 720 pixels
Display aspect ratio : 16:9
Frame rate mode : Constant
Frame rate : 23.976 (24000/1001) FPS
Color space : YUV
Chroma subsampling : 4:2:0
Bit depth : 8 bits
Scan type : Progressive
Bits/(Pixel*Frame) : 0.050
Stream size : 657 MiB (89%)
Default : Yes
Forced : No
Color range : Limited
Color primaries : BT.709
Transfer characteristics : BT.709
Matrix coefficients : BT.709

Audio
ID : 2
Format : AAC LC
Codec ID : A_AAC-2
Duration : 1 h 22 min
Bit rate : 128 kb/s
Channel(s) : 2 channels
Channel layout : L R
Sampling rate : 48.0 kHz
Frame rate : 46.875 FPS (1024 SPF)
Compression mode : Lossy
Delay relative to video : -21 ms
Stream size : 75.9 MiB (10%)
Language : English
Default : Yes
Forced : No

Text
ID : 3
Format : ASS
Codec ID : S_TEXT/ASS
Duration : 1 h 19 min
Bit rate : 82 b/s
Count of elements : 964
Compression mode : Lossless
Stream size : 48.3 KiB (0%)
Language : English
Default : Yes
Forced : No

[collapse]
Download Link(s)

Download

Direct download files get automatically deleted after a month or so. Posted on : 10/05/2019

[collapse]
Magnet Link

Magnet

Wonder.Woman.Bloodlines.2019.1080p.WEB-DL.DD5.1.H264-FGT-3.01 GB

[collapse]

You may also like...

error: nah :p~