1 Buck (2017)

TV-MA | 1h 30min | Drama, Thriller | 22 September 2017 (USA)

Shifting from one pocket to another, from one man’s drama to another, a lowly dollar bill, ‘one buck’ takes us on an odyssey through the heart of a forgotten town in Louisiana.

Watch trailer

Media information

General
Format : Matroska
Format version : Version 4
File size : 803 MiB
Duration : 1 h 28 min
Overall bit rate : 1 266 kb/s
Movie name : 1.Buck.2017.720p.BluRay.2CH.x264.AVC
Encoded date : UTC 2018-09-26 22:37:24
Writing application : mkvmerge v26.0.0 (‘In The Game’) 32-bit
Writing library : libebml v1.3.6 + libmatroska v1.4.9

Video
ID : 2
Format : AVC
Format/Info : Advanced Video Codec
Format profile : [email protected]
Format settings : CABAC / 9 Ref Frames
Format settings, CABAC : Yes
Format settings, RefFrames : 9 frames
Codec ID : V_MPEG4/ISO/AVC
Duration : 1 h 28 min
Bit rate : 1 165 kb/s
Width : 1 280 pixels
Height : 570 pixels
Display aspect ratio : 2.25:1
Frame rate mode : Constant
Frame rate : 23.976 (24000/1001) FPS
Color space : YUV
Chroma subsampling : 4:2:0
Bit depth : 8 bits
Scan type : Progressive
Bits/(Pixel*Frame) : 0.067
Stream size : 738 MiB (92%)
Default : Yes
Forced : No

Audio
ID : 1
Format : AAC LC SBR
Commercial name : HE-AAC
Format settings : Explicit
Codec ID : A_AAC-2
Duration : 1 h 28 min
Bit rate : 100.0 kb/s
Channel(s) : 2 channels
Channel layout : L R
Sampling rate : 48.0 kHz
Frame rate : 23.438 FPS (2048 SPF)
Compression mode : Lossy
Delay relative to video : 31 ms
Stream size : 63.4 MiB (8%)
Language : English
Default : Yes
Forced : No

Text
ID : 3
Format : UTF-8
Codec ID : S_TEXT/UTF8
Codec ID/Info : UTF-8 Plain Text
Duration : 1 h 23 min
Bit rate : 48 b/s
Count of elements : 1285
Stream size : 29.6 KiB (0%)
Language : English
Default : Yes
Forced : No

[collapse]
Download Link(s)

Download

[RE-UP]-Direct download files get automatically deleted after a month or so. Posted on : 09/27/2018

[collapse]
Magnet Link

Magnet

Source : 1.Buck.2017.720p.BluRay.x264.DTS-MT-4.35 GB

[collapse]

You may also like...

error: nah :p~