1985 (2018)

1h 25min | Drama | 9 March 2018 (USA)

A closeted young man goes home for the holidays and struggles to reveal his dire circumstances to his conservative family.

Watch trailer

Media information

General
Format : Matroska
Format version : Version 4
File size : 702 MiB
Duration : 1 h 25 min
Overall bit rate : 1 146 kb/s
Movie name : 1985.2018.720p.WEB-DL.2CH.x264.AVC
Encoded date : UTC 2018-12-20 16:25:28
Writing application : mkvmerge v29.0.0 (‘Like It Or Not’) 32-bit
Writing library : libebml v1.3.6 + libmatroska v1.4.9

Video
ID : 3
Format : AVC
Format/Info : Advanced Video Codec
Format profile : [email protected]
Format settings : CABAC / 9 Ref Frames
Format settings, CABAC : Yes
Format settings, RefFrames : 9 frames
Codec ID : V_MPEG4/ISO/AVC
Duration : 1 h 25 min
Bit rate : 1 081 kb/s
Width : 1 200 pixels
Height : 720 pixels
Display aspect ratio : 5:3
Original display aspect ratio : 5:3
Frame rate mode : Constant
Frame rate : 23.976 (24000/1001) FPS
Color space : YUV
Chroma subsampling : 4:2:0
Bit depth : 8 bits
Scan type : Progressive
Bits/(Pixel*Frame) : 0.052
Stream size : 661 MiB (94%)
Default : Yes
Forced : No
Color range : Limited
Color primaries : BT.709
Transfer characteristics : BT.709
Matrix coefficients : BT.709

Audio
ID : 1
Format : AAC LC SBR
Commercial name : HE-AAC
Format settings : Explicit
Codec ID : A_AAC-2
Duration : 1 h 25 min
Bit rate : 64.0 kb/s
Channel(s) : 2 channels
Channel layout : L R
Sampling rate : 48.0 kHz
Frame rate : 23.438 FPS (2048 SPF)
Compression mode : Lossy
Delay relative to video : 31 ms
Stream size : 39.2 MiB (6%)
Default : Yes
Forced : No

Text
ID : 2
Format : UTF-8
Codec ID : S_TEXT/UTF8
Codec ID/Info : UTF-8 Plain Text
Duration : 1 h 19 min
Bit rate : 71 b/s
Count of elements : 1078
Stream size : 41.7 KiB (0%)
Language : English
Default : Yes
Forced : No

[collapse]
Download Link(s)

Download

Direct download files get automatically deleted after a month or so. Posted on : 12/21/2018

[collapse]
Magnet Link

Magnet

1985.2018.1080p.WEBRip.DD5.1.x264-AKME-3.37 GB

[collapse]

You may also like...

error: nah :p~