2001: A Space Odyssey (1968)

G | 2h 29min | Adventure , Sci-Fi | 12 May 1968 (UK)

A space-opera spanning the dawn of man to humanity reaching the stars, 2001: A Space Odyssey tells the story of the Black Monolith, humanity’s evolution and the rise of A.I.’s ultimate supercomputer HAL 9000.

Watch trailer

Media information

General
Format : Matroska
Format version : Version 4
File size : 900 MiB
Duration : 2 h 28 min
Overall bit rate : 846 kb/s
Movie name : 2001.A.Space.Odyssey.1968.REMASTERED.720p.BluRay.2CH.x265.HEVC
Encoded date : UTC 2018-10-30 17:00:08
Writing application : mkvmerge v28.2.0 (‘The Awakening’) 32-bit
Writing library : libebml v1.3.6 + libmatroska v1.4.9

Video
ID : 3
Format : HEVC
Format/Info : High Efficiency Video Coding
Format profile : [email protected]@Main
Codec ID : V_MPEGH/ISO/HEVC
Duration : 2 h 28 min
Bit rate : 780 kb/s
Width : 1 280 pixels
Height : 580 pixels
Display aspect ratio : 2.2:1
Frame rate mode : Constant
Frame rate : 23.976 (24000/1001) FPS
Color space : YUV
Chroma subsampling : 4:2:0
Bit depth : 8 bits
Bits/(Pixel*Frame) : 0.044
Stream size : 830 MiB (92%)
Default : Yes
Forced : No
Color range : Limited
Color primaries : BT.709
Transfer characteristics : BT.709
Matrix coefficients : BT.709

Audio
ID : 1
Format : AAC LC SBR
Commercial name : HE-AAC
Format settings : Explicit
Codec ID : A_AAC-2
Duration : 2 h 28 min
Bit rate : 64.0 kb/s
Channel(s) : 2 channels
Channel layout : L R
Sampling rate : 48.0 kHz
Frame rate : 23.438 FPS (2048 SPF)
Compression mode : Lossy
Delay relative to video : -4 ms
Stream size : 68.1 MiB (8%)
Default : Yes
Forced : No

Text
ID : 2
Format : UTF-8
Codec ID : S_TEXT/UTF8
Codec ID/Info : UTF-8 Plain Text
Duration : 2 h 24 min
Bit rate : 26 b/s
Count of elements : 667
Stream size : 28.3 KiB (0%)
Language : English
Default : Yes
Forced : No

[collapse]
Download Link(s)

Download

Direct download files get automatically deleted after a month or so. Posted on : 10/30/2018

[collapse]
Magnet Link

Magnet

2001.A.Space.Odyssey.1968.REMASTERED.1080p.BluRay.x264.DTS-HD.MA.5.1-FGT-11.82 GB

[collapse]

You may also like...

error: nah :p~