2020 Billboard Music Awards (2020)

Music | TV Special 14 October 2020

The 2020 Billboard Music Awards are a wrap! Post Malone came into the show the biggest nominee and he leaves the biggest winner, taking home the top artist prize to end the night and winning nine awards overall.

Watch trailer

Media information

General
Format : Matroska
Format version : Version 4
File size : 953 MiB
Duration : 2 h 2 min
Overall bit rate : 1 085 kb/s
Movie name : Billboard.Music.Awards.2020.720p.WEBRip.2CH.x265.HEVC

Video
ID : 1
Format : HEVC
Format/Info : High Efficiency Video Coding
Format profile : [email protected]@Main
Codec ID : V_MPEGH/ISO/HEVC
Duration : 2 h 2 min
Bit rate : 986 kb/s
Width : 1 280 pixels
Height : 720 pixels
Display aspect ratio : 16:9
Frame rate mode : Constant
Frame rate : 29.970 (30000/1001) FPS
Color space : YUV
Chroma subsampling : 4:2:0
Bit depth : 8 bits
Bits/(Pixel*Frame) : 0.036
Stream size : 866 MiB (91%)
Default : Yes
Forced : No

Audio
ID : 2
Format : AAC LC
Codec ID : A_AAC-2
Duration : 2 h 2 min
Bit rate : 96.0 kb/s
Channel(s) : 2 channels
Channel layout : L R
Sampling rate : 48.0 kHz
Frame rate : 46.875 FPS (1024 SPF)
Compression mode : Lossy
Stream size : 84.5 MiB (9%)
Language : English
Default : Yes
Forced : No

Text
ID : 3
Format : UTF-8
Codec ID : S_TEXT/UTF8
Codec ID/Info : UTF-8 Plain Text
Duration : 2 h 1 min
Bit rate : 64 b/s
Count of elements : 1285
Stream size : 57.6 KiB (0%)
Language : English
Default : Yes
Forced : No

[collapse]
Download Link(s)

Download

Direct download files get automatically deleted after a month or so. Posted on : 10/16/2020

[collapse]
Magnet Link

Magnet

Billboard.Music.Awards.2020.1080p.WEB.h264-KOGi-6.74 GB

[collapse]

You may also like...

error: nah :p~