3 Days to Kill (2014)

PG-13 | 1h 57min | Action, Drama, Thriller | 21 February 2014 (USA)

A dying CIA agent trying to reconnect with his estranged daughter is offered an experimental drug that could save his life in exchange for one last assignment.

Watch trailer

Media information

General
Format : Matroska
Format version : Version 4
File size : 2.64 GiB
Duration : 2 h 2 min
Overall bit rate : 3 096 kb/s
Movie name : 3.Days.To.Kill.2014.1080p.10bit.BluRay.6CH.x265.HEVC
Encoded date : UTC 2018-12-29 17:57:56
Writing application : mkvmerge v29.0.0 (‘Like It Or Not’) 32-bit
Writing library : libebml v1.3.6 + libmatroska v1.4.9

Video
ID : 1
Format : HEVC
Format/Info : High Efficiency Video Coding
Format profile : Main [email protected]@Main
Codec ID : V_MPEGH/ISO/HEVC
Duration : 2 h 2 min
Bit rate : 2 645 kb/s
Width : 1 920 pixels
Height : 810 pixels
Display aspect ratio : 2.40:1
Frame rate mode : Constant
Frame rate : 23.976 (24000/1001) FPS
Color space : YUV
Chroma subsampling : 4:2:0
Bit depth : 10 bits
Bits/(Pixel*Frame) : 0.071
Stream size : 2.26 GiB (85%)
Default : Yes
Forced : No

Audio
ID : 2
Format : AAC LC
Codec ID : A_AAC-2
Duration : 2 h 2 min
Bit rate : 448 kb/s
Channel(s) : 6 channels
Channel layout : C L R Ls Rs LFE
Sampling rate : 48.0 kHz
Frame rate : 46.875 FPS (1024 SPF)
Compression mode : Lossy
Stream size : 392 MiB (14%)
Title : LC AAC 448 kbs, 6ch
Language : English
Default : Yes
Forced : No

Text
ID : 3
Format : UTF-8
Codec ID : S_TEXT/UTF8
Codec ID/Info : UTF-8 Plain Text
Duration : 1 h 55 min
Bit rate : 54 b/s
Count of elements : 1425
Stream size : 45.7 KiB (0%)
Language : English
Default : Yes
Forced : No

[collapse]
Download Link(s)

Part01 Part02 Part03

[RE-UP]-Direct download files get automatically deleted after a month or so. Posted on : 12/30/2018

[collapse]
Magnet Link

Magnet

3.Days.to.Kill.2014.EXTENDED.CUT.1080p.BluRay.x264-SPARKS-8.74 GB

[collapse]

Media information

General
Format : Matroska
Format version : Version 4
File size : 704 MiB
Duration : 2 h 2 min
Overall bit rate : 804 kb/s
Movie name : 3.Days.To.Kill.2014.720p.BluRay.2CH.x265.HEVC
Encoded date : UTC 2018-12-29 17:53:46
Writing application : mkvmerge v29.0.0 (‘Like It Or Not’) 32-bit
Writing library : libebml v1.3.6 + libmatroska v1.4.9

Video
ID : 1
Format : HEVC
Format/Info : High Efficiency Video Coding
Format profile : [email protected]@Main
Codec ID : V_MPEGH/ISO/HEVC
Duration : 2 h 2 min
Bit rate : 699 kb/s
Width : 1 280 pixels
Height : 720 pixels
Display aspect ratio : 2.35:1
Original display aspect ratio : 2.40:1
Frame rate mode : Constant
Frame rate : 23.976 (24000/1001) FPS
Color space : YUV
Chroma subsampling : 4:2:0
Bit depth : 8 bits
Bits/(Pixel*Frame) : 0.032
Stream size : 611 MiB (87%)
Default : Yes
Forced : No
Color range : Limited
Color primaries : BT.709
Transfer characteristics : BT.709
Matrix coefficients : BT.709

Audio
ID : 2
Format : Opus
Codec ID : A_OPUS
Duration : 2 h 2 min
Bit rate : 103 kb/s
Channel(s) : 2 channels
Channel layout : L R
Sampling rate : 48.0 kHz
Frame rate : 50.000 FPS (960 SPF)
Compression mode : Lossy
Delay relative to video : -7 ms
Stream size : 90.3 MiB (13%)
Title : Stereo
Language : English
Default : Yes
Forced : No

Text
ID : 3
Format : ASS
Duration : 1 h 55 min
Bit rate : 91 b/s
Count of elements : 1425
Compression mode : Lossless
Stream size : 77.0 KiB (0%)
Language : English
Default : Yes
Forced : Yes

[collapse]
Download Link(s)

Download

[RE-UP]-Direct download files get automatically deleted after a month or so. Posted on : 12/30/2018

[collapse]
Magnet Link

Magnet

3.Days.to.Kill.2014.EXTENDED.CUT.1080p.BluRay.x264-SPARKS-8.74 GB

[collapse]

You may also like...

error: nah :p~