47 Meters Down (2017)

PG-13 | 1h 29min | Adventure, Drama, Horror | 16 June 2017 (USA)

Two sisters vacationing in Mexico are trapped in a shark cage at the bottom of the ocean. With less than an hour of oxygen left and great white sharks circling nearby, they must fight to survive.

Watch trailer

Media information

General
Format : Matroska
Format version : Version 4 / Version 2
File size : 657 MiB
Duration : 1 h 29 min
Overall bit rate : 1 029 kb/s
Movie name : 47.Meters.Down.2017.720p.10bit.BluRay.6CH.x265.HEVC
Encoded date : UTC 2017-11-20 23:10:47
Writing application : mkvmerge v18.0.0 (‘Apricity’) 32-bit
Writing library : libebml v1.3.5 + libmatroska v1.4.8

Video
ID : 1
Format : HEVC
Format/Info : High Efficiency Video Coding
Format profile : Main [email protected]@Main
Codec ID : V_MPEGH/ISO/HEVC
Duration : 1 h 29 min
Bit rate : 822 kb/s
Width : 1 280 pixels
Height : 536 pixels
Display aspect ratio : 2.40:1
Frame rate mode : Constant
Frame rate : 23.976 (24000/1001) FPS
Color space : YUV
Chroma subsampling : 4:2:0
Bit depth : 10 bits
Bits/(Pixel*Frame) : 0.050
Stream size : 525 MiB (80%)
Default : Yes
Forced : No

Audio
ID : 2
Format : AAC
Format/Info : Advanced Audio Codec
Format profile : HE-AAC / LC
Format settings : Explicit
Codec ID : A_AAC-2
Duration : 1 h 29 min
Bit rate : 204 kb/s
Channel(s) : 6 channels
Channel(s)_Original : 18 channels
Channel positions : Front: 14, Side: C, Back: C, LFE= 2
Sampling rate : 48.0 kHz / 24.0 kHz
Frame rate : 23.438 FPS (1024 SPF)
Compression mode : Lossy
Delay relative to video : 23 ms
Stream size : 131 MiB (20%)
Default : Yes
Forced : No

Text
ID : 3
Format : UTF-8
Codec ID : S_TEXT/UTF8
Codec ID/Info : UTF-8 Plain Text
Duration : 1 h 20 min
Bit rate : 46 b/s
Count of elements : 888
Stream size : 27.4 KiB (0%)
Language : English
Default : Yes
Forced : No

[collapse]
Download Link(s)

Download

[RE-UP] Direct download files get automatically deleted after a month or so. Posted on : 03/24/2018

[collapse]
Magnet Link

Magnet

Source : 47.Meters.Down.2017.1080p.BluRay.x264-BLOW-6.57 GB

[collapse]

You may also like...

error: nah :p~