A Christmas Carol (1951)

Scrooge (original title)|TV-PG | 1h 26min | Drama, Fantasy | 2 December 1951 (USA)

Old bitter miser Ebenezer Scrooge (Alastair Sim) is given a chance for redemption when he is haunted by three ghosts on Christmas Eve.

Watch trailer

Media information

General
Format : Matroska
Format version : Version 4
File size : 585 MiB
Duration : 1 h 26 min
Overall bit rate : 945 kb/s
Movie name : A.Christmas.Carol.1951.720p.BluRay.2CH.x265.HEVC
Encoded date : UTC 2019-12-31 11:22:00
Writing application : mkvmerge v41.0.0 (‘Smarra’) 32-bit
Writing library : libebml v1.3.9 + libmatroska v1.5.2

Video
ID : 1
Format : HEVC
Format/Info : High Efficiency Video Coding
Format profile : [email protected]@Main
Codec ID : V_MPEGH/ISO/HEVC
Duration : 1 h 26 min
Bit rate : 871 kb/s
Width : 1 280 pixels
Height : 720 pixels
Display aspect ratio : 4:3
Frame rate mode : Constant
Frame rate : 23.976 (24000/1001) FPS
Color space : YUV
Chroma subsampling : 4:2:0
Bit depth : 8 bits
Bits/(Pixel*Frame) : 0.039
Stream size : 539 MiB (92%)
Default : Yes
Forced : No
Color range : Limited
Color primaries : BT.709
Transfer characteristics : BT.709
Matrix coefficients : BT.709

Audio
ID : 2
Format : AAC LC
Codec ID : A_AAC-2
Duration : 1 h 26 min
Bit rate : 64.3 kb/s
Channel(s) : 2 channels
Channel layout : L R
Sampling rate : 48.0 kHz
Frame rate : 46.875 FPS (1024 SPF)
Compression mode : Lossy
Delay relative to video : -1 ms
Stream size : 39.8 MiB (7%)
Title : Stereo
Language : English
Default : Yes
Forced : No

Text #1
ID : 3
Format : VobSub
Muxing mode : zlib
Codec ID : S_VOBSUB
Duration : 1 h 25 min
Bit rate : 6 255 b/s
Count of elements : 1159
Stream size : 3.84 MiB (1%)
Language : English
Default : Yes
Forced : Yes

Text #2
ID : 4
Format : VobSub
Muxing mode : zlib
Codec ID : S_VOBSUB
Duration : 1 h 25 min
Bit rate : 6 036 b/s
Count of elements : 1276
Stream size : 3.71 MiB (1%)
Language : Spanish
Default : No
Forced : No

[collapse]
Download Link(s)

Download

Direct download files get automatically deleted after a month or so. Posted on : 12/31/2019

[collapse]
Magnet Link

Magnet

A.Christmas.Carol.1951.1080p.BluRay.x264-iOZO-7.96 GB

[collapse]

You may also like...

error: nah :p~