A Kid Like Jake (2018)

1h 32min | Drama, Family | 1 June 2018 (USA)

A Brooklyn couple has always known that their four-year-old son is more interested in fairy tale princesses than toy cars. But when his preschool director points out that his gender-nonconforming play may be more than a phase, the couple is forced to rethink their roles as parents and spouses.

Watch trailer

Media information

General
Format : Matroska
Format version : Version 4 / Version 2
File size : 508 MiB
Duration : 1 h 29 min
Overall bit rate : 797 kb/s
Movie name : A.Kid.Like.Jake.2018.720p.WEBRip.2CH.x265.HEVC
Encoded date : UTC 2018-07-28 12:27:45
Writing application : mkvmerge v25.0.0 (‘Prog Noir’) 32-bit
Writing library : libebml v1.3.6 + libmatroska v1.4.9

Video
ID : 1
Format : HEVC
Format/Info : High Efficiency Video Coding
Format profile : [email protected]@Main
Codec ID : V_MPEGH/ISO/HEVC
Duration : 1 h 29 min
Bit rate : 729 kb/s
Width : 1 280 pixels
Height : 688 pixels
Display aspect ratio : 1.85:1
Frame rate mode : Constant
Frame rate : 23.976 (24000/1001) FPS
Color space : YUV
Chroma subsampling : 4:2:0
Bit depth : 8 bits
Bits/(Pixel*Frame) : 0.035
Stream size : 465 MiB (91%)
Default : Yes
Forced : No

Audio
ID : 2
Format : AAC
Format/Info : Advanced Audio Codec
Format profile : HE-AAC / LC
Format settings : Explicit
Codec ID : A_AAC-2
Duration : 1 h 29 min
Bit rate : 66.2 kb/s
Channel(s) : 2 channels
Channel positions : Front: L R
Sampling rate : 48.0 kHz / 24.0 kHz
Frame rate : 23.438 FPS (1024 SPF)
Compression mode : Lossy
Delay relative to video : 23 ms
Stream size : 42.1 MiB (8%)
Language : English
Default : Yes
Forced : No

Text
ID : 3
Format : UTF-8
Codec ID : S_TEXT/UTF8
Codec ID/Info : UTF-8 Plain Text
Duration : 1 h 28 min
Bit rate : 73 b/s
Count of elements : 1571
Stream size : 48.0 KiB (0%)
Language : English
Default : Yes
Forced : No

[collapse]
Download Link(s)

Download

[RE-UP] -Direct download files get automatically deleted after a month or so. Posted on : 07/28/2018

[collapse]
Magnet Link

Magnet

Source : A.Kid.Like.Jake.2018.720p.AMZN.WEBRip.DDP5.1.x264-NTG-2.51 GB

[collapse]

You may also like...

error: nah :p~