Abnormal Attraction (2018)

Not Rated | 1h 47min | Adventure, Comedy, Fantasy | 1 March 2018 (USA)

In a world where mythical creatures are real, monsters and humans are forced to coexist; and as prejudice and insecurity pulls everyone apart, three separate storylines manage to come together.

Watch trailer

Media information

General
Format : Matroska
Format version : Version 4
File size : 851 MiB
Duration : 1 h 47 min
Overall bit rate : 1 109 kb/s
Movie name : Abnormal.Attraction.2018.720p.WEB-DL.2CH.x264.AVC
Encoded date : UTC 2019-02-26 14:44:56
Writing application : mkvmerge v31.0.0 (‘Dolores In A Shoestand’) 32-bit
Writing library : libebml v1.3.6 + libmatroska v1.4.9

Video
ID : 1
Format : AVC
Format/Info : Advanced Video Codec
Format profile : [email protected]
Format settings : CABAC / 8 Ref Frames
Format settings, CABAC : Yes
Format settings, RefFrames : 8 frames
Codec ID : V_MPEG4/ISO/AVC
Duration : 1 h 47 min
Bit rate : 1 043 kb/s
Width : 1 280 pixels
Height : 720 pixels
Display aspect ratio : 16:9
Frame rate mode : Constant
Frame rate : 23.976 (24000/1001) FPS
Color space : YUV
Chroma subsampling : 4:2:0
Bit depth : 8 bits
Scan type : Progressive
Bits/(Pixel*Frame) : 0.047
Stream size : 800 MiB (94%)
Default : Yes
Forced : No

Audio
ID : 2
Format : AAC LC SBR
Commercial name : HE-AAC
Format settings : Explicit
Codec ID : A_AAC-2
Duration : 1 h 47 min
Bit rate : 64.0 kb/s
Channel(s) : 2 channels
Channel layout : L R
Sampling rate : 48.0 kHz
Frame rate : 23.438 FPS (2048 SPF)
Compression mode : Lossy
Delay relative to video : 43 ms
Stream size : 49.1 MiB (6%)
Language : English
Default : Yes
Forced : No

Text
ID : 3
Format : UTF-8
Codec ID : S_TEXT/UTF8
Codec ID/Info : UTF-8 Plain Text
Duration : 1 h 47 min
Bit rate : 66 b/s
Count of elements : 2103
Stream size : 52.0 KiB (0%)
Title : SDH
Language : English
Default : Yes
Forced : No

[collapse]
Download Link(s)

Download

Direct download files get automatically deleted after a month or so. Posted on : 02/26/2019

[collapse]
Magnet Link

Magnet

Abnormal.Attraction.2018.1080p.AMZN.WEBRip.DDP2.0.x264-NTG-5.69 GB

[collapse]

You may also like...

error: nah :p~