Addams Family Values (1993)

PG-13 | 1h 34min | Comedy, Fantasy | 19 November 1993 (USA)

The Addams Family try to rescue their beloved Uncle Fester from his gold-digging new love, a black widow named Debbie.

Watch trailer

Media information

General
Format : Matroska
Format version : Version 4
File size : 1.38 GiB
Duration : 1 h 34 min
Overall bit rate : 2 103 kb/s
Movie name : Addams.Family.Values.1993.1080p.10bit.BluRay.6CH.x265.HEVC

Video
ID : 1
Format : HEVC
Format/Info : High Efficiency Video Coding
Format profile : Main [email protected]@Main
Codec ID : V_MPEGH/ISO/HEVC
Duration : 1 h 34 min
Bit rate : 1 821 kb/s
Width : 1 920 pixels
Height : 1 080 pixels
Display aspect ratio : 16:9
Frame rate mode : Constant
Frame rate : 23.976 (24000/1001) FPS
Color space : YUV
Chroma subsampling : 4:2:0
Bit depth : 10 bits
Bits/(Pixel*Frame) : 0.037
Stream size : 1.20 GiB (87%)
Default : Yes
Forced : No
Color range : Limited
Color primaries : BT.709
Transfer characteristics : BT.709
Matrix coefficients : BT.709

Audio
ID : 2
Format : AAC LC
Codec ID : A_AAC-2
Duration : 1 h 34 min
Bit rate : 224 kb/s
Channel(s) : 6 channels
Channel layout : C L R Ls Rs LFE
Sampling rate : 48.0 kHz
Frame rate : 46.875 FPS (1024 SPF)
Compression mode : Lossy
Delay relative to video : -1 ms
Stream size : 151 MiB (11%)
Language : English
Default : Yes
Forced : No

Text #1
ID : 3
Format : VobSub
Muxing mode : zlib
Codec ID : S_VOBSUB
Duration : 1 h 33 min
Bit rate : 11.1 kb/s
Count of elements : 1688
Stream size : 7.46 MiB (1%)
Language : English
Default : Yes
Forced : Yes

Text #2
ID : 4
Format : VobSub
Muxing mode : zlib
Codec ID : S_VOBSUB
Duration : 1 h 27 min
Bit rate : 8 310 b/s
Count of elements : 866
Stream size : 5.18 MiB (0%)
Language : Danish
Default : No
Forced : No

Text #3
ID : 5
Format : VobSub
Muxing mode : zlib
Codec ID : S_VOBSUB
Duration : 1 h 27 min
Bit rate : 8 310 b/s
Count of elements : 924
Stream size : 5.18 MiB (0%)
Language : Dutch
Default : No
Forced : No

Text #4
ID : 6
Format : VobSub
Muxing mode : zlib
Codec ID : S_VOBSUB
Duration : 1 h 27 min
Bit rate : 8 427 b/s
Count of elements : 846
Stream size : 5.25 MiB (0%)
Language : Finnish
Default : No
Forced : No

Text #5
ID : 7
Format : VobSub
Muxing mode : zlib
Codec ID : S_VOBSUB
Duration : 1 h 27 min
Bit rate : 8 275 b/s
Count of elements : 1046
Stream size : 5.16 MiB (0%)
Language : French
Default : No
Forced : No

Text #6
ID : 8
Format : VobSub
Muxing mode : zlib
Codec ID : S_VOBSUB
Duration : 1 h 27 min
Bit rate : 8 912 b/s
Count of elements : 920
Stream size : 5.55 MiB (0%)
Language : German
Default : No
Forced : No

Text #7
ID : 9
Format : VobSub
Muxing mode : zlib
Codec ID : S_VOBSUB
Duration : 1 h 24 min
Bit rate : 273 b/s
Count of elements : 27
Stream size : 168 KiB (0%)
Title : Forced
Language : German
Default : No
Forced : No

Text #8
ID : 10
Format : VobSub
Muxing mode : zlib
Codec ID : S_VOBSUB
Duration : 1 h 27 min
Bit rate : 9 287 b/s
Count of elements : 989
Stream size : 5.79 MiB (0%)
Language : Italian
Default : No
Forced : No

Text #9
ID : 11
Format : VobSub
Muxing mode : zlib
Codec ID : S_VOBSUB
Duration : 1 h 27 min
Bit rate : 6 627 b/s
Count of elements : 1175
Stream size : 4.13 MiB (0%)
Language : Japanese
Default : No
Forced : No

Text #10
ID : 12
Format : VobSub
Muxing mode : zlib
Codec ID : S_VOBSUB
Duration : 1 h 27 min
Bit rate : 7 315 b/s
Count of elements : 754
Stream size : 4.56 MiB (0%)
Language : Norwegian Bokmal
Default : No
Forced : No

Text #11
ID : 13
Format : VobSub
Muxing mode : zlib
Codec ID : S_VOBSUB
Duration : 1 h 27 min
Bit rate : 9 084 b/s
Count of elements : 907
Stream size : 5.66 MiB (0%)
Language : Spanish
Default : No
Forced : No

Text #12
ID : 14
Format : VobSub
Muxing mode : zlib
Codec ID : S_VOBSUB
Duration : 1 h 27 min
Bit rate : 7 066 b/s
Count of elements : 752
Stream size : 4.40 MiB (0%)
Language : Swedish
Default : No
Forced : No

[collapse]
Download Link(s)

Download

Direct download files get automatically deleted after a month or so. Posted on : 03/27/2021

[collapse]
Magnet Link

Magnet

Addams.Family.Values.1993.1080p.BluRay.x265.HEV.10bit.AAC.5-1-4.3 GB

[collapse]

Media information

General
Format : Matroska
Format version : Version 4
File size : 755 MiB
Duration : 1 h 34 min
Overall bit rate : 1 120 kb/s
Movie name : Addams.Family.Values.1993.720p.10bit.BluRay.6CH.x265.HEVC

Video
ID : 1
Format : HEVC
Format/Info : High Efficiency Video Coding
Format profile : Main [email protected]@Main
Codec ID : V_MPEGH/ISO/HEVC
Duration : 1 h 34 min
Bit rate : 871 kb/s
Width : 1 280 pixels
Height : 720 pixels
Display aspect ratio : 16:9
Frame rate mode : Constant
Frame rate : 23.976 (24000/1001) FPS
Color space : YUV
Chroma subsampling : 4:2:0
Bit depth : 10 bits
Bits/(Pixel*Frame) : 0.039
Stream size : 587 MiB (78%)
Default : Yes
Forced : No
Color range : Limited
Color primaries : BT.709
Transfer characteristics : BT.709
Matrix coefficients : BT.709

Audio
ID : 2
Format : AAC LC
Codec ID : A_AAC-2
Duration : 1 h 34 min
Bit rate : 192 kb/s
Channel(s) : 6 channels
Channel layout : C L R Ls Rs LFE
Sampling rate : 48.0 kHz
Frame rate : 46.875 FPS (1024 SPF)
Compression mode : Lossy
Delay relative to video : -1 ms
Stream size : 129 MiB (17%)
Language : English
Default : Yes
Forced : No

Text #1
ID : 3
Format : VobSub
Muxing mode : zlib
Codec ID : S_VOBSUB
Duration : 1 h 33 min
Bit rate : 11.1 kb/s
Count of elements : 1688
Stream size : 7.46 MiB (1%)
Language : English
Default : Yes
Forced : Yes

Text #2
ID : 4
Format : VobSub
Muxing mode : zlib
Codec ID : S_VOBSUB
Duration : 1 h 27 min
Bit rate : 8 310 b/s
Count of elements : 866
Stream size : 5.18 MiB (0%)
Language : Danish
Default : No
Forced : No

Text #3
ID : 5
Format : VobSub
Muxing mode : zlib
Codec ID : S_VOBSUB
Duration : 1 h 27 min
Bit rate : 8 310 b/s
Count of elements : 924
Stream size : 5.18 MiB (0%)
Language : Dutch
Default : No
Forced : No

Text #4
ID : 6
Format : VobSub
Muxing mode : zlib
Codec ID : S_VOBSUB
Duration : 1 h 27 min
Bit rate : 8 427 b/s
Count of elements : 846
Stream size : 5.25 MiB (0%)
Language : Finnish
Default : No
Forced : No

Text #5
ID : 7
Format : VobSub
Muxing mode : zlib
Codec ID : S_VOBSUB
Duration : 1 h 27 min
Bit rate : 8 275 b/s
Count of elements : 1046
Stream size : 5.16 MiB (0%)
Language : French
Default : No
Forced : No

Text #6
ID : 8
Format : VobSub
Muxing mode : zlib
Codec ID : S_VOBSUB
Duration : 1 h 27 min
Bit rate : 8 912 b/s
Count of elements : 920
Stream size : 5.55 MiB (0%)
Language : German
Default : No
Forced : No

Text #7
ID : 9
Format : VobSub
Muxing mode : zlib
Codec ID : S_VOBSUB
Duration : 1 h 24 min
Bit rate : 273 b/s
Count of elements : 27
Stream size : 168 KiB (0%)
Title : Forced
Language : German
Default : No
Forced : No

Text #8
ID : 10
Format : VobSub
Muxing mode : zlib
Codec ID : S_VOBSUB
Duration : 1 h 27 min
Bit rate : 9 287 b/s
Count of elements : 989
Stream size : 5.79 MiB (0%)
Language : Italian
Default : No
Forced : No

Text #9
ID : 11
Format : VobSub
Muxing mode : zlib
Codec ID : S_VOBSUB
Duration : 1 h 27 min
Bit rate : 6 627 b/s
Count of elements : 1175
Stream size : 4.13 MiB (0%)
Language : Japanese
Default : No
Forced : No

Text #10
ID : 12
Format : VobSub
Muxing mode : zlib
Codec ID : S_VOBSUB
Duration : 1 h 27 min
Bit rate : 7 315 b/s
Count of elements : 754
Stream size : 4.56 MiB (0%)
Language : Norwegian Bokmal
Default : No
Forced : No

Text #11
ID : 13
Format : VobSub
Muxing mode : zlib
Codec ID : S_VOBSUB
Duration : 1 h 27 min
Bit rate : 9 084 b/s
Count of elements : 907
Stream size : 5.66 MiB (0%)
Language : Spanish
Default : No
Forced : No

Text #12
ID : 14
Format : VobSub
Muxing mode : zlib
Codec ID : S_VOBSUB
Duration : 1 h 27 min
Bit rate : 7 066 b/s
Count of elements : 752
Stream size : 4.40 MiB (0%)
Language : Swedish
Default : No
Forced : No

[collapse]
Download Link(s)

Download

Direct download files get automatically deleted after a month or so. Posted on : 03/27/2021

[collapse]
Magnet Link

Magnet

Addams.Family.Values.1993.1080p.BluRay.x265.HEV.10bit.AAC.5-1-4.3 GB

[collapse]

You may also like...

error: nah :p~