Adopt a Highway (2019)

Not Rated | 1h 18min | Drama | 1 November 2019 (USA)

An ex-felon discovers a live baby left in a dumpster.

Watch trailer

Media information

General
Format : Matroska
Format version : Version 4
File size : 596 MiB
Duration : 1 h 21 min
Overall bit rate : 1 027 kb/s
Movie name : Adopt.a.Highway.2019.720p.10bit.BluRay.6CH.x265.HEVC
Encoded date : UTC 2019-12-25 22:02:46
Writing application : mkvmerge v41.0.0 (‘Smarra’) 32-bit
Writing library : libebml v1.3.9 + libmatroska v1.5.2

Video
ID : 1
Format : HEVC
Format/Info : High Efficiency Video Coding
Format profile : Main [email protected]@Main
Codec ID : V_MPEGH/ISO/HEVC
Duration : 1 h 21 min
Bit rate : 827 kb/s
Width : 1 280 pixels
Height : 720 pixels
Display aspect ratio : 16:9
Frame rate mode : Constant
Frame rate : 23.976 (24000/1001) FPS
Color space : YUV
Chroma subsampling : 4:2:0
Bit depth : 10 bits
Bits/(Pixel*Frame) : 0.037
Stream size : 480 MiB (80%)
Default : Yes
Forced : No

Audio
ID : 2
Format : AAC LC SBR
Commercial name : HE-AAC
Format settings : Explicit
Codec ID : A_AAC-2
Duration : 1 h 21 min
Bit rate : 199 kb/s
Channel(s) : 6 channels
Channel layout : C L R Ls Rs LFE
Sampling rate : 48.0 kHz
Frame rate : 23.438 FPS (2048 SPF)
Compression mode : Lossy
Delay relative to video : 23 ms
Stream size : 115 MiB (19%)
Language : English
Default : Yes
Forced : No

Text
ID : 3
Format : UTF-8
Codec ID : S_TEXT/UTF8
Codec ID/Info : UTF-8 Plain Text
Duration : 1 h 20 min
Bit rate : 45 b/s
Count of elements : 920
Stream size : 27.1 KiB (0%)
Language : English
Default : Yes
Forced : No

[collapse]
Download Link(s)

Download

Direct download files get automatically deleted after a month or so. Posted on : 12/26/2019

[collapse]
Magnet Link

Magnet

Adopt.a.Highway.2019.1080p.BluRay.REMUX.AVC.DTS-HD.MA.5.1-FGT- 13.67 GB

[collapse]

Media information

General
Format : Matroska
Format version : Version 4
File size : 561 MiB
Duration : 1 h 21 min
Overall bit rate : 964 kb/s
Movie name : Adopt.A.Highway.2019.720p.WEB-DL.2CH.x265.HEVC
Encoded date : UTC 2019-11-01 12:27:51
Writing application : mkvmerge v38.0.0 (‘The Silent Type’) 32-bit
Writing library : libebml v1.3.9 + libmatroska v1.5.2

Video
ID : 1
Format : HEVC
Format/Info : High Efficiency Video Coding
Format profile : [email protected]@Main
Codec ID : V_MPEGH/ISO/HEVC
Duration : 1 h 21 min
Bit rate : 898 kb/s
Width : 1 280 pixels
Height : 720 pixels
Display aspect ratio : 16:9
Frame rate mode : Constant
Frame rate : 23.976 (24000/1001) FPS
Color space : YUV
Chroma subsampling : 4:2:0
Bit depth : 8 bits
Bits/(Pixel*Frame) : 0.041
Stream size : 522 MiB (93%)
Default : Yes
Forced : No
Color range : Limited
Color primaries : BT.709
Transfer characteristics : BT.709
Matrix coefficients : BT.709

Audio
ID : 2
Format : AAC LC SBR
Commercial name : HE-AAC
Format settings : Explicit
Codec ID : A_AAC-2
Duration : 1 h 21 min
Bit rate : 64.7 kb/s
Channel(s) : 2 channels
Channel layout : L R
Sampling rate : 48.0 kHz
Frame rate : 23.438 FPS (2048 SPF)
Compression mode : Lossy
Delay relative to video : 23 ms
Stream size : 37.6 MiB (7%)
Language : English
Default : Yes
Forced : No

Text
ID : 3
Format : UTF-8
Codec ID : S_TEXT/UTF8
Codec ID/Info : UTF-8 Plain Text
Duration : 1 h 20 min
Bit rate : 58 b/s
Count of elements : 1029
Stream size : 34.3 KiB (0%)
Language : English
Default : Yes
Forced : No

[collapse]
Download Link(s)

Download

Direct download files get automatically deleted after a month or so. Posted on : 11/01/2019

[collapse]
Magnet Link

Magnet

Adopt.A.Highway.2019.1080p.WEB-DL.DD5.1.H264-FGT-3.18 GB

[collapse]

You may also like...

error: nah :p~