Affairs of State (2018)

R | 1h 37min | Drama | 15 June 2018 (USA)

A young campaign aide gets in way over his head when he sleeps with the wife and daughter of a presidential candidate only to end up bleeding out on the side of an empty road at night.

Watch trailer

Media information

General
Format : Matroska
Format version : Version 4 / Version 2
File size : 802 MiB
Duration : 1 h 37 min
Overall bit rate : 1 151 kb/s
Movie name : Affairs.of.State.2018.720p.WEB-DL.2CH.x264.AVC
Encoded date : UTC 2018-06-15 21:19:12
Writing application : mkvmerge v24.0.0 (‘Beyond The Pale’) 32-bit
Writing library : libebml v1.3.6 + libmatroska v1.4.9

Video
ID : 2
Format : AVC
Format/Info : Advanced Video Codec
Format profile : [email protected]
Format settings : CABAC / 5 Ref Frames
Format settings, CABAC : Yes
Format settings, RefFrames : 5 frames
Codec ID : V_MPEG4/ISO/AVC
Duration : 1 h 37 min
Bit rate : 1 086 kb/s
Width : 1 280 pixels
Height : 716 pixels
Display aspect ratio : 16:9
Original display aspect ratio : 16:9
Frame rate mode : Constant
Frame rate : 23.976 (24000/1001) FPS
Color space : YUV
Chroma subsampling : 4:2:0
Bit depth : 8 bits
Scan type : Progressive
Bits/(Pixel*Frame) : 0.049
Stream size : 756 MiB (94%)
Default : Yes
Forced : No
Color range : Limited
Color primaries : BT.709
Transfer characteristics : BT.709
Matrix coefficients : BT.709

Audio
ID : 1
Format : AAC
Format/Info : Advanced Audio Codec
Format profile : HE-AAC / LC
Format settings : Explicit
Codec ID : A_AAC-2
Duration : 1 h 37 min
Bit rate : 64.0 kb/s
Channel(s) : 2 channels
Channel positions : Front: L R
Sampling rate : 48.0 kHz / 24.0 kHz
Frame rate : 23.438 FPS (1024 SPF)
Compression mode : Lossy
Delay relative to video : 31 ms
Stream size : 44.6 MiB (6%)
Language : English
Default : Yes
Forced : No

Text
ID : 3
Format : UTF-8
Codec ID : S_TEXT/UTF8
Codec ID/Info : UTF-8 Plain Text
Duration : 1 h 35 min
Bit rate : 62 b/s
Count of elements : 1388
Stream size : 44.1 KiB (0%)
Default : Yes
Forced : No

[collapse]
Download Link(s)

Download

Direct download files get automatically deleted after a month or so. Posted on : 06/16/2018

[collapse]
Magnet Link

Magnet

Source : Affairs.of.State.2018.1080p.AMZN.WEBRip.DDP5.1.x264-NTG-6.57 GB

[collapse]

You may also like...

error: nah :p~