After (2019)

PG-13 | 1h 45min | Drama, Romance | 12 April 2019 (USA)

A young woman falls for a guy with a dark secret and the two embark on a rocky relationship. Based on the novel by Anna Todd.

Watch trailer

Media information

General
Format : Matroska
Format version : Version 4
File size : 793 MiB
Duration : 1 h 46 min
Overall bit rate : 1 045 kb/s
Movie name : After.2019.720p.WEB-DL.2CH.x265.HEVC
Encoded date : UTC 2019-06-25 11:08:46
Writing application : mkvmerge v35.0.0 (‘All The Love In The World’) 32-bit
Writing library : libebml v1.3.9 + libmatroska v1.5.2

Video
ID : 1
Format : HEVC
Format/Info : High Efficiency Video Coding
Format profile : [email protected]@Main
Codec ID : V_MPEGH/ISO/HEVC
Duration : 1 h 46 min
Bit rate : 969 kb/s
Width : 1 280 pixels
Height : 536 pixels
Display aspect ratio : 2.40:1
Frame rate mode : Constant
Frame rate : 23.976 (24000/1001) FPS
Color space : YUV
Chroma subsampling : 4:2:0
Bit depth : 8 bits
Bits/(Pixel*Frame) : 0.059
Stream size : 735 MiB (93%)
Default : Yes
Forced : No

Audio
ID : 2
Format : AAC LC SBR
Commercial name : HE-AAC
Format settings : Explicit
Codec ID : A_AAC-2
Duration : 1 h 46 min
Bit rate : 74.3 kb/s
Channel(s) : 2 channels
Channel layout : L R
Sampling rate : 48.0 kHz
Frame rate : 23.438 FPS (2048 SPF)
Compression mode : Lossy
Delay relative to video : 23 ms
Stream size : 56.4 MiB (7%)
Language : English
Default : Yes
Forced : No

Text
ID : 3
Format : UTF-8
Codec ID : S_TEXT/UTF8
Codec ID/Info : UTF-8 Plain Text
Duration : 1 h 38 min
Bit rate : 34 b/s
Count of elements : 880
Stream size : 24.5 KiB (0%)
Language : English
Default : Yes
Forced : No

[collapse]
Download Link(s)

Download

Direct download files get automatically deleted after a month or so. Posted on : 06/25/2019

[collapse]
Magnet Link

Magnet

After.2019.1080p.WEB-DL.DD5.1.H264-FGT-3.69 GB

[collapse]

You may also like...

error: nah :p~