Aliens (1986)

R | 2h 17min | Action, Adventure, Sci-Fi | 18 July 1986 (USA)

Fifty-seven years after surviving an apocalyptic attack aboard her space vessel by merciless space creatures, Officer Ripley awakens from hyper-sleep and tries to warn anyone who will listen about the predators.

Watch trailer

Media information

General
Format : Matroska
Format version : Version 4
File size : 2.38 GiB
Duration : 2 h 34 min
Overall bit rate : 2 203 kb/s
Movie name : Aliens.1986.Special.Edition.1080p.10bit.BluRay.6CH.x265.HEVC

Video
ID : 1
Format : HEVC
Format/Info : High Efficiency Video Coding
Format profile : Main [email protected]@Main
Codec ID : V_MPEGH/ISO/HEVC
Duration : 2 h 34 min
Bit rate : 1 897 kb/s
Width : 1 920 pixels
Height : 1 040 pixels
Display aspect ratio : 1.85:1
Frame rate mode : Constant
Frame rate : 23.976 (24000/1001) FPS
Color space : YUV
Chroma subsampling : 4:2:0
Bit depth : 10 bits
Bits/(Pixel*Frame) : 0.040
Stream size : 2.05 GiB (86%)
Default : Yes
Forced : No
Color range : Limited
Color primaries : BT.709
Transfer characteristics : BT.709
Matrix coefficients : BT.709

Audio
ID : 2
Format : AAC LC
Codec ID : A_AAC-2
Duration : 2 h 34 min
Bit rate : 224 kb/s
Channel(s) : 6 channels
Channel layout : C L R Ls Rs LFE
Sampling rate : 48.0 kHz
Frame rate : 46.875 FPS (1024 SPF)
Compression mode : Lossy
Delay relative to video : -12 ms
Stream size : 248 MiB (10%)
Language : English
Default : Yes
Forced : No

Text #1
ID : 3
Format : PGS
Muxing mode : zlib
Codec ID : S_HDMV/PGS
Duration : 2 h 29 min
Bit rate : 21.7 kb/s
Count of elements : 2263
Stream size : 23.2 MiB (2%)
Language : English
Default : Yes
Forced : Yes

Text #2
ID : 4
Format : VobSub
Muxing mode : zlib
Codec ID : S_VOBSUB
Duration : 2 h 33 min
Bit rate : 5 733 b/s
Count of elements : 1175
Stream size : 6.28 MiB (1%)
Language : Russian
Default : No
Forced : No

Text #3
ID : 5
Format : VobSub
Muxing mode : zlib
Codec ID : S_VOBSUB
Duration : 1 h 56 min
Bit rate : 30 b/s
Count of elements : 8
Stream size : 26.3 KiB (0%)
Language : Russian
Default : No
Forced : No

Text #4
ID : 6
Format : VobSub
Muxing mode : zlib
Codec ID : S_VOBSUB
Duration : 2 h 33 min
Bit rate : 6 299 b/s
Count of elements : 1151
Stream size : 6.90 MiB (1%)
Language : Spanish
Default : No
Forced : No

Text #5
ID : 7
Format : VobSub
Muxing mode : zlib
Codec ID : S_VOBSUB
Duration : 2 h 33 min
Bit rate : 60 b/s
Count of elements : 14
Stream size : 68.4 KiB (0%)
Language : Spanish
Default : No
Forced : No

Text #6
ID : 8
Format : VobSub
Muxing mode : zlib
Codec ID : S_VOBSUB
Duration : 2 h 33 min
Bit rate : 6 764 b/s
Count of elements : 1146
Stream size : 7.41 MiB (1%)
Language : Estonian
Default : No
Forced : No

Text #7
ID : 9
Format : VobSub
Muxing mode : zlib
Codec ID : S_VOBSUB
Duration : 2 h 33 min
Bit rate : 6 213 b/s
Count of elements : 1144
Stream size : 6.81 MiB (1%)
Language : Latvian
Default : No
Forced : No

Text #8
ID : 10
Format : VobSub
Muxing mode : zlib
Codec ID : S_VOBSUB
Duration : 2 h 33 min
Bit rate : 5 542 b/s
Count of elements : 1166
Stream size : 6.07 MiB (0%)
Language : Lithuanian
Default : No
Forced : No

Text #9
ID : 11
Format : VobSub
Muxing mode : zlib
Codec ID : S_VOBSUB
Duration : 2 h 33 min
Bit rate : 6 458 b/s
Count of elements : 1143
Stream size : 7.08 MiB (1%)
Language : Bulgarian
Default : No
Forced : No

Text #10
ID : 12
Format : VobSub
Muxing mode : zlib
Codec ID : S_VOBSUB
Duration : 2 h 33 min
Bit rate : 5 863 b/s
Count of elements : 1144
Stream size : 6.42 MiB (1%)
Language : Croatian
Default : No
Forced : No

Text #11
ID : 13
Format : VobSub
Muxing mode : zlib
Codec ID : S_VOBSUB
Duration : 2 h 31 min
Bit rate : 3 962 b/s
Count of elements : 1126
Stream size : 4.30 MiB (0%)
Language : Arabic
Default : No
Forced : No

Text #12
ID : 14
Format : VobSub
Muxing mode : zlib
Codec ID : S_VOBSUB
Duration : 2 h 33 min
Bit rate : 4 951 b/s
Count of elements : 1141
Stream size : 5.43 MiB (0%)
Language : Hebrew
Default : No
Forced : No

Text #13
ID : 15
Format : VobSub
Muxing mode : zlib
Codec ID : S_VOBSUB
Duration : 2 h 31 min
Bit rate : 6 453 b/s
Count of elements : 1147
Stream size : 7.00 MiB (1%)
Language : Kazakh
Default : No
Forced : No

Text #14
ID : 16
Format : VobSub
Muxing mode : zlib
Codec ID : S_VOBSUB
Duration : 2 h 33 min
Bit rate : 5 860 b/s
Count of elements : 1136
Stream size : 6.42 MiB (1%)
Language : Romanian
Default : No
Forced : No

Text #15
ID : 17
Format : VobSub
Muxing mode : zlib
Codec ID : S_VOBSUB
Duration : 2 h 33 min
Bit rate : 5 875 b/s
Count of elements : 1135
Stream size : 6.44 MiB (1%)
Language : Slovenian
Default : No
Forced : No

Text #16
ID : 18
Format : VobSub
Muxing mode : zlib
Codec ID : S_VOBSUB
Duration : 2 h 33 min
Bit rate : 6 317 b/s
Count of elements : 1153
Stream size : 6.92 MiB (1%)
Language : Turkish
Default : No
Forced : No

Text #17
ID : 19
Format : VobSub
Muxing mode : zlib
Codec ID : S_VOBSUB
Duration : 2 h 25 min
Bit rate : 904 b/s
Count of elements : 153
Stream size : 962 KiB (0%)
Language : Turkish
Default : No
Forced : No

Text #18
ID : 20
Format : VobSub
Muxing mode : zlib
Codec ID : S_VOBSUB
Duration : 2 h 29 min
Bit rate : 6 619 b/s
Count of elements : 1146
Stream size : 7.07 MiB (1%)
Language : Ukrainian
Default : No
Forced : No

Text #19
ID : 21
Format : VobSub
Muxing mode : zlib
Codec ID : S_VOBSUB
Duration : 2 h 34 min
Bit rate : 15.6 kb/s
Count of elements : 2021
Stream size : 17.3 MiB (1%)
Language : Russian
Default : No
Forced : No

Text #20
ID : 22
Format : VobSub
Muxing mode : zlib
Codec ID : S_VOBSUB
Duration : 2 h 34 min
Bit rate : 16.6 kb/s
Count of elements : 1984
Stream size : 18.3 MiB (2%)
Language : Spanish
Default : No
Forced : No

Text #21
ID : 23
Format : ASS
Codec ID : S_TEXT/ASS
Duration : 2 h 32 min
Bit rate : 125 b/s
Count of elements : 1370
Compression mode : Lossless
Stream size : 140 KiB (0%)
Language : Bengali
Default : No
Forced : No

Text #22
ID : 24
Format : ASS
Codec ID : S_TEXT/ASS
Duration : 2 h 29 min
Bit rate : 72 b/s
Count of elements : 1514
Compression mode : Lossless
Stream size : 79.5 KiB (0%)
Title : Brazillian
Language : Portuguese
Default : No
Forced : No

Text #23
ID : 25
Format : ASS
Codec ID : S_TEXT/ASS
Duration : 2 h 31 min
Bit rate : 55 b/s
Count of elements : 1134
Compression mode : Lossless
Stream size : 61.2 KiB (0%)
Language : Chinese
Default : No
Forced : No

Text #24
ID : 26
Format : ASS
Codec ID : S_TEXT/ASS
Duration : 2 h 31 min
Bit rate : 55 b/s
Count of elements : 1134
Compression mode : Lossless
Stream size : 61.2 KiB (0%)
Language : Danish
Default : No
Forced : No

Text #25
ID : 27
Format : ASS
Codec ID : S_TEXT/ASS
Duration : 2 h 28 min
Bit rate : 52 b/s
Count of elements : 1035
Compression mode : Lossless
Stream size : 57.1 KiB (0%)
Language : Dutch
Default : No
Forced : No

Text #26
ID : 28
Format : ASS
Codec ID : S_TEXT/ASS
Duration : 2 h 31 min
Bit rate : 95 b/s
Count of elements : 1432
Compression mode : Lossless
Stream size : 106 KiB (0%)
Language : Persian
Default : No
Forced : No

Text #27
ID : 29
Format : ASS
Codec ID : S_TEXT/ASS
Duration : 2 h 28 min
Bit rate : 61 b/s
Count of elements : 1124
Compression mode : Lossless
Stream size : 66.8 KiB (0%)
Language : French
Default : No
Forced : No

Text #28
ID : 30
Format : ASS
Codec ID : S_TEXT/ASS
Duration : 2 h 31 min
Bit rate : 62 b/s
Count of elements : 1185
Compression mode : Lossless
Stream size : 69.2 KiB (0%)
Language : German
Default : No
Forced : No

Text #29
ID : 31
Format : ASS
Codec ID : S_TEXT/ASS
Duration : 2 h 28 min
Bit rate : 97 b/s
Count of elements : 1454
Compression mode : Lossless
Stream size : 106 KiB (0%)
Language : Greek
Default : No
Forced : No

Text #30
ID : 32
Format : ASS
Codec ID : S_TEXT/ASS
Duration : 2 h 33 min
Bit rate : 70 b/s
Count of elements : 1417
Compression mode : Lossless
Stream size : 79.5 KiB (0%)
Language : Indonesian
Default : No
Forced : No

Text #31
ID : 33
Format : ASS
Codec ID : S_TEXT/ASS
Duration : 2 h 32 min
Bit rate : 98 b/s
Count of elements : 1818
Compression mode : Lossless
Stream size : 110 KiB (0%)
Language : Korean
Default : No
Forced : No

Text #32
ID : 34
Format : ASS
Codec ID : S_TEXT/ASS
Duration : 2 h 28 min
Bit rate : 63 b/s
Count of elements : 1234
Compression mode : Lossless
Stream size : 69.3 KiB (0%)
Language : Norwegian
Default : No
Forced : No

Text #33
ID : 35
Format : ASS
Codec ID : S_TEXT/ASS
Duration : 2 h 33 min
Bit rate : 56 b/s
Count of elements : 1141
Compression mode : Lossless
Stream size : 63.8 KiB (0%)
Language : Portuguese
Default : No
Forced : No

Text #34
ID : 36
Format : ASS
Codec ID : S_TEXT/ASS
Duration : 2 h 31 min
Bit rate : 51 b/s
Count of elements : 1128
Compression mode : Lossless
Stream size : 57.5 KiB (0%)
Language : Swedish
Default : No
Forced : No

Text #35
ID : 37
Format : ASS
Codec ID : S_TEXT/ASS
Duration : 2 h 31 min
Bit rate : 82 b/s
Count of elements : 1595
Compression mode : Lossless
Stream size : 91.9 KiB (0%)
Language : Vietnamese
Default : No
Forced : No

[collapse]
Download Link(s)

Download

Direct download files get automatically deleted after a month or so. Posted on : 03/30/2021

[collapse]
Magnet Link

Magnet

Aliens.1986.Special.Edition.Featurettes.1080p.BluRay.AI.x265.HEVC.10bit.AAC.5.1-5.1 GB

[collapse]

Media information

General
Format : Matroska
Format version : Version 4
File size : 1.19 GiB
Duration : 2 h 34 min
Overall bit rate : 1 102 kb/s
Movie name : Aliens.1986.Special.Edition.720p.10bit.BluRay.6CH.x265.HEVC

Video
ID : 1
Format : HEVC
Format/Info : High Efficiency Video Coding
Format profile : Main [email protected]@Main
Codec ID : V_MPEGH/ISO/HEVC
Duration : 2 h 34 min
Bit rate : 828 kb/s
Width : 1 280 pixels
Height : 694 pixels
Display aspect ratio : 1.85:1
Frame rate mode : Constant
Frame rate : 23.976 (24000/1001) FPS
Color space : YUV
Chroma subsampling : 4:2:0
Bit depth : 10 bits
Bits/(Pixel*Frame) : 0.039
Stream size : 914 MiB (75%)
Default : Yes
Forced : No
Color range : Limited
Color primaries : BT.709
Transfer characteristics : BT.709
Matrix coefficients : BT.709

Audio
ID : 2
Format : AAC LC
Codec ID : A_AAC-2
Duration : 2 h 34 min
Bit rate : 192 kb/s
Channel(s) : 6 channels
Channel layout : C L R Ls Rs LFE
Sampling rate : 48.0 kHz
Frame rate : 46.875 FPS (1024 SPF)
Compression mode : Lossy
Delay relative to video : -12 ms
Stream size : 212 MiB (17%)
Language : English
Default : Yes
Forced : No

Text #1
ID : 3
Format : PGS
Muxing mode : zlib
Codec ID : S_HDMV/PGS
Duration : 2 h 29 min
Bit rate : 21.7 kb/s
Count of elements : 2263
Stream size : 23.2 MiB (2%)
Language : English
Default : Yes
Forced : Yes

Text #2
ID : 4
Format : VobSub
Muxing mode : zlib
Codec ID : S_VOBSUB
Duration : 2 h 33 min
Bit rate : 5 733 b/s
Count of elements : 1175
Stream size : 6.28 MiB (1%)
Language : Russian
Default : No
Forced : No

Text #3
ID : 5
Format : VobSub
Muxing mode : zlib
Codec ID : S_VOBSUB
Duration : 1 h 56 min
Bit rate : 30 b/s
Count of elements : 8
Stream size : 26.3 KiB (0%)
Language : Russian
Default : No
Forced : No

Text #4
ID : 6
Format : VobSub
Muxing mode : zlib
Codec ID : S_VOBSUB
Duration : 2 h 33 min
Bit rate : 6 299 b/s
Count of elements : 1151
Stream size : 6.90 MiB (1%)
Language : Spanish
Default : No
Forced : No

Text #5
ID : 7
Format : VobSub
Muxing mode : zlib
Codec ID : S_VOBSUB
Duration : 2 h 33 min
Bit rate : 60 b/s
Count of elements : 14
Stream size : 68.4 KiB (0%)
Language : Spanish
Default : No
Forced : No

Text #6
ID : 8
Format : VobSub
Muxing mode : zlib
Codec ID : S_VOBSUB
Duration : 2 h 33 min
Bit rate : 6 764 b/s
Count of elements : 1146
Stream size : 7.41 MiB (1%)
Language : Estonian
Default : No
Forced : No

Text #7
ID : 9
Format : VobSub
Muxing mode : zlib
Codec ID : S_VOBSUB
Duration : 2 h 33 min
Bit rate : 6 213 b/s
Count of elements : 1144
Stream size : 6.81 MiB (1%)
Language : Latvian
Default : No
Forced : No

Text #8
ID : 10
Format : VobSub
Muxing mode : zlib
Codec ID : S_VOBSUB
Duration : 2 h 33 min
Bit rate : 5 542 b/s
Count of elements : 1166
Stream size : 6.07 MiB (0%)
Language : Lithuanian
Default : No
Forced : No

Text #9
ID : 11
Format : VobSub
Muxing mode : zlib
Codec ID : S_VOBSUB
Duration : 2 h 33 min
Bit rate : 6 458 b/s
Count of elements : 1143
Stream size : 7.08 MiB (1%)
Language : Bulgarian
Default : No
Forced : No

Text #10
ID : 12
Format : VobSub
Muxing mode : zlib
Codec ID : S_VOBSUB
Duration : 2 h 33 min
Bit rate : 5 863 b/s
Count of elements : 1144
Stream size : 6.42 MiB (1%)
Language : Croatian
Default : No
Forced : No

Text #11
ID : 13
Format : VobSub
Muxing mode : zlib
Codec ID : S_VOBSUB
Duration : 2 h 31 min
Bit rate : 3 962 b/s
Count of elements : 1126
Stream size : 4.30 MiB (0%)
Language : Arabic
Default : No
Forced : No

Text #12
ID : 14
Format : VobSub
Muxing mode : zlib
Codec ID : S_VOBSUB
Duration : 2 h 33 min
Bit rate : 4 951 b/s
Count of elements : 1141
Stream size : 5.43 MiB (0%)
Language : Hebrew
Default : No
Forced : No

Text #13
ID : 15
Format : VobSub
Muxing mode : zlib
Codec ID : S_VOBSUB
Duration : 2 h 31 min
Bit rate : 6 453 b/s
Count of elements : 1147
Stream size : 7.00 MiB (1%)
Language : Kazakh
Default : No
Forced : No

Text #14
ID : 16
Format : VobSub
Muxing mode : zlib
Codec ID : S_VOBSUB
Duration : 2 h 33 min
Bit rate : 5 860 b/s
Count of elements : 1136
Stream size : 6.42 MiB (1%)
Language : Romanian
Default : No
Forced : No

Text #15
ID : 17
Format : VobSub
Muxing mode : zlib
Codec ID : S_VOBSUB
Duration : 2 h 33 min
Bit rate : 5 875 b/s
Count of elements : 1135
Stream size : 6.44 MiB (1%)
Language : Slovenian
Default : No
Forced : No

Text #16
ID : 18
Format : VobSub
Muxing mode : zlib
Codec ID : S_VOBSUB
Duration : 2 h 33 min
Bit rate : 6 317 b/s
Count of elements : 1153
Stream size : 6.92 MiB (1%)
Language : Turkish
Default : No
Forced : No

Text #17
ID : 19
Format : VobSub
Muxing mode : zlib
Codec ID : S_VOBSUB
Duration : 2 h 25 min
Bit rate : 904 b/s
Count of elements : 153
Stream size : 962 KiB (0%)
Language : Turkish
Default : No
Forced : No

Text #18
ID : 20
Format : VobSub
Muxing mode : zlib
Codec ID : S_VOBSUB
Duration : 2 h 29 min
Bit rate : 6 619 b/s
Count of elements : 1146
Stream size : 7.07 MiB (1%)
Language : Ukrainian
Default : No
Forced : No

Text #19
ID : 21
Format : VobSub
Muxing mode : zlib
Codec ID : S_VOBSUB
Duration : 2 h 34 min
Bit rate : 15.6 kb/s
Count of elements : 2021
Stream size : 17.3 MiB (1%)
Language : Russian
Default : No
Forced : No

Text #20
ID : 22
Format : VobSub
Muxing mode : zlib
Codec ID : S_VOBSUB
Duration : 2 h 34 min
Bit rate : 16.6 kb/s
Count of elements : 1984
Stream size : 18.3 MiB (2%)
Language : Spanish
Default : No
Forced : No

Text #21
ID : 23
Format : ASS
Codec ID : S_TEXT/ASS
Duration : 2 h 32 min
Bit rate : 125 b/s
Count of elements : 1370
Compression mode : Lossless
Stream size : 140 KiB (0%)
Language : Bengali
Default : No
Forced : No

Text #22
ID : 24
Format : ASS
Codec ID : S_TEXT/ASS
Duration : 2 h 29 min
Bit rate : 72 b/s
Count of elements : 1514
Compression mode : Lossless
Stream size : 79.5 KiB (0%)
Title : Brazillian
Language : Portuguese
Default : No
Forced : No

Text #23
ID : 25
Format : ASS
Codec ID : S_TEXT/ASS
Duration : 2 h 31 min
Bit rate : 55 b/s
Count of elements : 1134
Compression mode : Lossless
Stream size : 61.2 KiB (0%)
Language : Chinese
Default : No
Forced : No

Text #24
ID : 26
Format : ASS
Codec ID : S_TEXT/ASS
Duration : 2 h 31 min
Bit rate : 55 b/s
Count of elements : 1134
Compression mode : Lossless
Stream size : 61.2 KiB (0%)
Language : Danish
Default : No
Forced : No

Text #25
ID : 27
Format : ASS
Codec ID : S_TEXT/ASS
Duration : 2 h 28 min
Bit rate : 52 b/s
Count of elements : 1035
Compression mode : Lossless
Stream size : 57.1 KiB (0%)
Language : Dutch
Default : No
Forced : No

Text #26
ID : 28
Format : ASS
Codec ID : S_TEXT/ASS
Duration : 2 h 31 min
Bit rate : 95 b/s
Count of elements : 1432
Compression mode : Lossless
Stream size : 106 KiB (0%)
Language : Persian
Default : No
Forced : No

Text #27
ID : 29
Format : ASS
Codec ID : S_TEXT/ASS
Duration : 2 h 28 min
Bit rate : 61 b/s
Count of elements : 1124
Compression mode : Lossless
Stream size : 66.8 KiB (0%)
Language : French
Default : No
Forced : No

Text #28
ID : 30
Format : ASS
Codec ID : S_TEXT/ASS
Duration : 2 h 31 min
Bit rate : 62 b/s
Count of elements : 1185
Compression mode : Lossless
Stream size : 69.2 KiB (0%)
Language : German
Default : No
Forced : No

Text #29
ID : 31
Format : ASS
Codec ID : S_TEXT/ASS
Duration : 2 h 28 min
Bit rate : 97 b/s
Count of elements : 1454
Compression mode : Lossless
Stream size : 106 KiB (0%)
Language : Greek
Default : No
Forced : No

Text #30
ID : 32
Format : ASS
Codec ID : S_TEXT/ASS
Duration : 2 h 33 min
Bit rate : 70 b/s
Count of elements : 1417
Compression mode : Lossless
Stream size : 79.5 KiB (0%)
Language : Indonesian
Default : No
Forced : No

Text #31
ID : 33
Format : ASS
Codec ID : S_TEXT/ASS
Duration : 2 h 32 min
Bit rate : 98 b/s
Count of elements : 1818
Compression mode : Lossless
Stream size : 110 KiB (0%)
Language : Korean
Default : No
Forced : No

Text #32
ID : 34
Format : ASS
Codec ID : S_TEXT/ASS
Duration : 2 h 28 min
Bit rate : 63 b/s
Count of elements : 1234
Compression mode : Lossless
Stream size : 69.3 KiB (0%)
Language : Norwegian
Default : No
Forced : No

Text #33
ID : 35
Format : ASS
Codec ID : S_TEXT/ASS
Duration : 2 h 33 min
Bit rate : 56 b/s
Count of elements : 1141
Compression mode : Lossless
Stream size : 63.8 KiB (0%)
Language : Portuguese
Default : No
Forced : No

Text #34
ID : 36
Format : ASS
Codec ID : S_TEXT/ASS
Duration : 2 h 31 min
Bit rate : 51 b/s
Count of elements : 1128
Compression mode : Lossless
Stream size : 57.5 KiB (0%)
Language : Swedish
Default : No
Forced : No

Text #35
ID : 37
Format : ASS
Codec ID : S_TEXT/ASS
Duration : 2 h 31 min
Bit rate : 82 b/s
Count of elements : 1595
Compression mode : Lossless
Stream size : 91.9 KiB (0%)
Language : Vietnamese
Default : No
Forced : No

[collapse]
Download Link(s)

Download

Direct download files get automatically deleted after a month or so. Posted on : 03/30/2021

[collapse]
Magnet Link

Magnet

Aliens.1986.Special.Edition.Featurettes.1080p.BluRay.AI.x265.HEVC.10bit.AAC.5.1-5.1 GB

[collapse]

You may also like...

error: nah :p~