Along with the Gods: The Last 49 Days (2018)

Singwa hamkke: Ingwa yeon (original title)|Not Rated | 2h 22min | Action , Drama , Fantasy | 1 August 2018 (South Korea)

In the afterlife, one guardian helps a man through his trials, while his two colleagues help a former guardian on earth.

Watch trailer

Media information

General
Format : Matroska
Format version : Version 4
File size : 1.12 GiB
Duration : 2 h 21 min
Overall bit rate : 1 134 kb/s
Movie name : Along.with.the.Gods.The.Last.49.Days.2018.KOREAN.720p.10bit.BluRay.6CH.x265.HEVC
Encoded date : UTC 2018-11-04 13:12:12
Writing application : mkvmerge v28.2.0 (‘The Awakening’) 32-bit
Writing library : libebml v1.3.6 + libmatroska v1.4.9

Video
ID : 1
Format : HEVC
Format/Info : High Efficiency Video Coding
Format profile : Main [email protected]@Main
Codec ID : V_MPEGH/ISO/HEVC
Duration : 2 h 21 min
Bit rate : 926 kb/s
Width : 1 280 pixels
Height : 536 pixels
Display aspect ratio : 2.40:1
Frame rate mode : Constant
Frame rate : 24.000 FPS
Color space : YUV
Chroma subsampling : 4:2:0
Bit depth : 10 bits
Bits/(Pixel*Frame) : 0.056
Stream size : 937 MiB (82%)
Default : Yes
Forced : No

Audio
ID : 2
Format : AAC LC SBR
Commercial name : HE-AAC
Format settings : Explicit
Codec ID : A_AAC-2
Duration : 2 h 21 min
Bit rate : 205 kb/s
Channel(s) : 6 channels
Channel layout : C L R Ls Rs LFE
Sampling rate : 48.0 kHz
Frame rate : 23.438 FPS (2048 SPF)
Compression mode : Lossy
Delay relative to video : 23 ms
Stream size : 208 MiB (18%)
Language : Korean
Default : Yes
Forced : No

Text
ID : 3
Format : UTF-8
Codec ID : S_TEXT/UTF8
Codec ID/Info : UTF-8 Plain Text
Duration : 2 h 17 min
Bit rate : 45 b/s
Count of elements : 1848
Stream size : 45.7 KiB (0%)
Language : English
Default : Yes
Forced : No

[collapse]
Download Link(s)

Part01 Part02

Direct download files get automatically deleted after a month or so. Posted on : 11/04/2018

[collapse]
Magnet Link

Magnet

Along.with.the.Gods.The.Last.49.Days.2018.KOREAN.1080p.BluRay.REMUX.AVC.DTS-HD.MA.5.1-FGT-37.58 GB

[collapse]

You may also like...

error: nah :p~