American Dresser (2018)

Not Rated | 1h 37min | Adventure, Drama | 21 September 2018 (USA)

When a recent widower consumed with regret seeks absolution in riding his motorcycle cross-country to confront the mistakes of his past, he unexpectedly discovers that life is about moving forward, one mile at a time.

Watch trailer

Media information

General
Format : Matroska
Format version : Version 4
File size : 950 MiB
Duration : 1 h 37 min
Overall bit rate : 1 362 kb/s
Movie name : American.Dresser.2018.720p.BluRay.2CH.x264.AVC
Encoded date : UTC 2019-05-01 19:05:38
Writing application : mkvmerge v33.1.0 (‘Primrose’) 32-bit
Writing library : libebml v1.3.7 + libmatroska v1.5.0

Video
ID : 1
Format : AVC
Format/Info : Advanced Video Codec
Format profile : [email protected]
Format settings : CABAC / 8 Ref Frames
Format settings, CABAC : Yes
Format settings, Reference frames : 8 frames
Codec ID : V_MPEG4/ISO/AVC
Duration : 1 h 37 min
Bit rate : 1 232 kb/s
Width : 1 280 pixels
Height : 536 pixels
Display aspect ratio : 2.40:1
Frame rate mode : Constant
Frame rate : 23.976 (24000/1001) FPS
Color space : YUV
Chroma subsampling : 4:2:0
Bit depth : 8 bits
Scan type : Progressive
Bits/(Pixel*Frame) : 0.075
Stream size : 859 MiB (90%)
Default : Yes
Forced : No

Audio
ID : 2
Format : AAC LC SBR
Commercial name : HE-AAC
Format settings : Explicit
Codec ID : A_AAC-2
Duration : 1 h 37 min
Bit rate : 128 kb/s
Channel(s) : 2 channels
Channel layout : L R
Sampling rate : 48.0 kHz
Frame rate : 23.438 FPS (2048 SPF)
Compression mode : Lossy
Delay relative to video : 43 ms
Stream size : 89.3 MiB (9%)
Language : English
Default : Yes
Forced : No

Text
ID : 3
Format : UTF-8
Codec ID : S_TEXT/UTF8
Codec ID/Info : UTF-8 Plain Text
Duration : 1 h 31 min
Bit rate : 46 b/s
Count of elements : 1094
Stream size : 31.4 KiB (0%)
Language : English
Default : Yes
Forced : No

[collapse]
Download Link(s)

Download

Direct download files get automatically deleted after a month or so. Posted on : 05/01/2019

[collapse]
Magnet Link

Magnet

American.Dresser.2018.BluRay.1080p.x264.DTS-HD.MA5.1-DTOne-8.1 GB

[collapse]

You may also like...

error: nah :p~