American History X (1998)

R | 1h 59min | Crime, Drama | 20 November 1998 (USA)

A former neo-nazi skinhead tries to prevent his younger brother from going down the same wrong path that he did.

Watch trailer

Media information

General
Format : Matroska
Format version : Version 4 / Version 2
File size : 1.16 GiB
Duration : 1 h 54 min
Overall bit rate : 1 461 kb/s
Movie name : American.History.X.720p.BluRay.2C.x265.HEVC
Encoded date : UTC 2018-08-02 15:56:26
Writing application : mkvmerge v25.0.0 (‘Prog Noir’) 32-bit
Writing library : libebml v1.3.6 + libmatroska v1.4.9

Video
ID : 1
Format : HEVC
Format/Info : High Efficiency Video Coding
Format profile : [email protected]@Main
Codec ID : V_MPEGH/ISO/HEVC
Duration : 1 h 54 min
Bit rate : 1 340 kb/s
Width : 1 280 pixels
Height : 720 pixels
Display aspect ratio : 16:9
Frame rate mode : Constant
Frame rate : 23.976 (24000/1001) FPS
Color space : YUV
Chroma subsampling : 4:2:0
Bit depth : 8 bits
Bits/(Pixel*Frame) : 0.061
Stream size : 1.07 GiB (92%)
Default : Yes
Forced : No
Color range : Limited
Color primaries : BT.709
Transfer characteristics : BT.709
Matrix coefficients : BT.709

Audio
ID : 2
Format : Opus
Codec ID : A_OPUS
Duration : 1 h 53 min
Bit rate : 119 kb/s
Channel(s) : 2 channels
Channel positions : Front: L R
Sampling rate : 48.0 kHz
Frame rate : 50.000 FPS (960 SPF)
Compression mode : Lossy
Delay relative to video : 1 s 554 ms
Stream size : 97.0 MiB (8%)
Title : Stereo
Language : English
Default : Yes
Forced : No

Text
ID : 3
Format : ASS
Codec ID : S_TEXT/ASS
Codec ID/Info : Advanced Sub Station Alpha
Duration : 1 h 46 min
Bit rate : 119 b/s
Count of elements : 1623
Compression mode : Lossless
Stream size : 93.1 KiB (0%)
Language : English
Default : Yes
Forced : Yes

[collapse]
Download Link(s)

Part01 Part02

[RE-UP] – Direct download files get automatically deleted after a month or so. Posted on : 08/03/2018

[collapse]
Magnet Link

Magnet

Source : American.History.X.1998.1080p.BluRay.x264-SADPANDA-10.95 GB

[collapse]

You may also like...

error: nah :p~