American Satan (2017)

R | 1h 51min | Drama, Music, Thriller | 13 October 2017 (USA)

A young rock band, half of its members from England and half from the U.S., drops out of college and moves to the Sunset Strip to chase their dreams.

Watch trailer

Media information

General
Format : Matroska
Format version : Version 4 / Version 2
File size : 717 MiB
Duration : 1 h 52 min
Overall bit rate : 894 kb/s
Movie name : American.Satan.2017.720p.WEB-DL.2CH.x265.HEVC
Encoded date : UTC 2018-01-16 15:12:16
Writing application : mkvmerge v20.0.0 (‘I Am The Sun’) 32-bit
Writing library : libebml v1.3.5 + libmatroska v1.4.8

Video
ID : 1
Format : HEVC
Format/Info : High Efficiency Video Coding
Format profile : [email protected]@Main
Codec ID : V_MPEGH/ISO/HEVC
Duration : 1 h 52 min
Bit rate : 822 kb/s
Width : 1 280 pixels
Height : 536 pixels
Display aspect ratio : 2.40:1
Frame rate mode : Constant
Frame rate : 23.976 (24000/1001) FPS
Color space : YUV
Chroma subsampling : 4:2:0
Bit depth : 8 bits
Bits/(Pixel*Frame) : 0.050
Stream size : 659 MiB (92%)
Default : Yes
Forced : No

Audio
ID : 2
Format : AAC
Format/Info : Advanced Audio Codec
Format profile : HE-AAC / LC
Format settings : Explicit
Codec ID : A_AAC-2
Duration : 1 h 52 min
Bit rate : 70.2 kb/s
Channel(s) : 2 channels
Channel positions : Front: L R
Sampling rate : 48.0 kHz / 24.0 kHz
Frame rate : 23.438 FPS (1024 SPF)
Compression mode : Lossy
Delay relative to video : 23 ms
Stream size : 56.3 MiB (8%)
Default : Yes
Forced : No

Text
ID : 3
Format : UTF-8
Codec ID : S_TEXT/UTF8
Codec ID/Info : UTF-8 Plain Text
Duration : 1 h 51 min
Bit rate : 86 b/s
Count of elements : 1919
Stream size : 70.8 KiB (0%)
Language : English
Default : Yes
Forced : No

[collapse]
Download Link(s)

Download

Direct download files get automatically deleted after a month or so. Posted on : 01/16/2018

[collapse]
Magnet Link

Magnet

Source : American.Satan.2017.1080p.WEB-DL.DD5.1.H264-FGT-3.85 GB

[collapse]

You may also like...

error: nah :p~