Ancient Aliens and Jesuits 2021

Is God an alien being from another planet? This is a question that has been puzzling mankind ever since Erich von Daniken popularized the Ancient Astronaut theory. Undeniably showing proof of aliens and high technology in ancient times von Daniken has shifted the perception of the God described in scripture to an extraterrestrial being. But is that really the case? Is “God” the creator of the universe or just an alien pretender using high technology to confuse mankind? Is there ancient scripture that would settle this argument and once and for all reveal not only the true identity of God but of the alien beings as well? And is von Daniken’s concept his own or are there dark powers at work?
This movie reveals all the facts that von Daniken omitted.

Media information

General
Format : Matroska
Format version : Version 4
File size : 552 MiB
Duration : 39 min 55 s
Overall bit rate : 1 931 kb/s
Movie name : Ancient.Aliens.and.Jesuits.2021.1080p.10bit.WEB-DL.6CH.x265.HEVC

Video
ID : 1
Format : HEVC
Format/Info : High Efficiency Video Coding
Format profile : Main [email protected]@Main
Codec ID : V_MPEGH/ISO/HEVC
Duration : 39 min 55 s
Bit rate : 1 735 kb/s
Width : 1 920 pixels
Height : 1 080 pixels
Display aspect ratio : 1.924
Frame rate mode : Constant
Frame rate : 23.976 (24000/1001) FPS
Color space : YUV
Chroma subsampling : 4:2:0
Bit depth : 10 bits
Bits/(Pixel*Frame) : 0.035
Stream size : 496 MiB (90%)
Default : Yes
Forced : No
Color range : Limited
Color primaries : BT.709
Transfer characteristics : BT.709
Matrix coefficients : BT.709

Audio
ID : 2
Format : AAC LC
Codec ID : A_AAC-2
Duration : 39 min 55 s
Bit rate : 192 kb/s
Channel(s) : 2 channels
Channel layout : L R
Sampling rate : 48.0 kHz
Frame rate : 46.875 FPS (1024 SPF)
Compression mode : Lossy
Delay relative to video : -21 ms
Stream size : 55.1 MiB (10%)
Language : English
Default : Yes
Forced : No

Text
ID : 3
Format : UTF-8
Codec ID : S_TEXT/UTF8
Codec ID/Info : UTF-8 Plain Text
Duration : 39 min 26 s
Bit rate : 99 b/s
Count of elements : 507
Stream size : 28.7 KiB (0%)
Language : English
Default : Yes
Forced : No

[collapse]
Download Link(s)

Download

Direct download files get automatically deleted after a month or so. Posted on : 04/06/2021

[collapse]
Magnet Link

Magnet

Ancient.Aliens.and.Jesuits.2021.1080p.x264.Dr3adLoX-2.0 GB

[collapse]

Media information

General
Format : Matroska
Format version : Version 4
File size : 288 MiB
Duration : 39 min 55 s
Overall bit rate : 1 009 kb/s
Movie name : Ancient.Aliens.and.Jesuits.2021.720p.10bit.WEB-DL.6CH.x265.HEVC

Video
ID : 1
Format : HEVC
Format/Info : High Efficiency Video Coding
Format profile : Main [email protected]@Main
Codec ID : V_MPEGH/ISO/HEVC
Duration : 39 min 55 s
Bit rate : 813 kb/s
Width : 1 280 pixels
Height : 720 pixels
Display aspect ratio : 1.924
Frame rate mode : Constant
Frame rate : 23.976 (24000/1001) FPS
Color space : YUV
Chroma subsampling : 4:2:0
Bit depth : 10 bits
Bits/(Pixel*Frame) : 0.037
Stream size : 232 MiB (81%)
Default : Yes
Forced : No
Color range : Limited
Color primaries : BT.709
Transfer characteristics : BT.709
Matrix coefficients : BT.709

Audio
ID : 2
Format : AAC LC
Codec ID : A_AAC-2
Duration : 39 min 55 s
Bit rate : 192 kb/s
Channel(s) : 2 channels
Channel layout : L R
Sampling rate : 48.0 kHz
Frame rate : 46.875 FPS (1024 SPF)
Compression mode : Lossy
Delay relative to video : -21 ms
Stream size : 55.1 MiB (19%)
Language : English
Default : Yes
Forced : No

Text
ID : 3
Format : UTF-8
Codec ID : S_TEXT/UTF8
Codec ID/Info : UTF-8 Plain Text
Duration : 39 min 26 s
Bit rate : 99 b/s
Count of elements : 507
Stream size : 28.7 KiB (0%)
Language : English
Default : Yes
Forced : No

[collapse]
Download Link(s)

Download

Direct download files get automatically deleted after a month or so. Posted on : 04/06/2021

[collapse]
Magnet Link

Magnet

Ancient.Aliens.and.Jesuits.2021.1080p.x264.Dr3adLoX-2.0 GB

[collapse]

You may also like...

error: nah :p~