Anthony Jeselnik: Fire in the Maternity Ward (2019)

Comedy | TV Special 30 April 2019

Forging his own comedic boundaries, Anthony Jeselnik revels in getting away with saying things others can’t in this stand-up special shot in New York.

Watch trailer

Media information

General
Format : Matroska
Format version : Version 4
File size : 554 MiB
Duration : 1 h 4 min
Overall bit rate : 1 207 kb/s
Movie name : Anthony.Jeselnik.Fire.in.the.Maternity.Ward.2019.720p.WEB-DL.2CH.x264.AVC
Encoded date : UTC 2019-05-01 19:12:07
Writing application : mkvmerge v33.1.0 (‘Primrose’) 32-bit
Writing library : libebml v1.3.7 + libmatroska v1.5.0

Video
ID : 1
Format : AVC
Format/Info : Advanced Video Codec
Format profile : [email protected]
Format settings : CABAC / 8 Ref Frames
Format settings, CABAC : Yes
Format settings, Reference frames : 8 frames
Codec ID : V_MPEG4/ISO/AVC
Duration : 1 h 4 min
Bit rate : 1 077 kb/s
Width : 1 280 pixels
Height : 720 pixels
Display aspect ratio : 16:9
Frame rate mode : Constant
Frame rate : 23.976 (24000/1001) FPS
Color space : YUV
Chroma subsampling : 4:2:0
Bit depth : 8 bits
Scan type : Progressive
Bits/(Pixel*Frame) : 0.049
Stream size : 494 MiB (89%)
Default : Yes
Forced : No

Audio
ID : 2
Format : AAC LC SBR
Commercial name : HE-AAC
Format settings : Explicit
Codec ID : A_AAC-2
Duration : 1 h 4 min
Bit rate : 128 kb/s
Channel(s) : 2 channels
Channel layout : L R
Sampling rate : 48.0 kHz
Frame rate : 23.438 FPS (2048 SPF)
Compression mode : Lossy
Delay relative to video : 43 ms
Stream size : 58.7 MiB (11%)
Title : English
Language : English
Default : Yes
Forced : No

Text #1
ID : 3
Format : UTF-8
Codec ID : S_TEXT/UTF8
Codec ID/Info : UTF-8 Plain Text
Duration : 1 h 1 min
Bit rate : 60 b/s
Count of elements : 806
Stream size : 27.4 KiB (0%)
Language : English
Default : Yes
Forced : No

Text #2
ID : 4
Format : UTF-8
Codec ID : S_TEXT/UTF8
Codec ID/Info : UTF-8 Plain Text
Duration : 1 h 2 min
Bit rate : 67 b/s
Count of elements : 1076
Stream size : 30.6 KiB (0%)
Title : SDH
Language : English
Default : No
Forced : No

[collapse]
Download Link(s)

Download

Direct download files get automatically deleted after a month or so. Posted on : 05/02/2019

[collapse]
Magnet Link

Magnet

Anthony.Jeselnik.Fire.in.the.Maternity.Ward.2019.1080p.NF.WEBRip.DDP5.1.x264-NTG-1.92 GB

[collapse]

You may also like...

error: nah :p~