Apró mesék (2019)

1h 52min | Drama, Romance, Thriller | 14 March 2019 (Hungary)

Shortly after the end of World War II, a con man on the run finds himself in a passionate love affair that may well cost him his life.

Watch trailer

Media information

General
Format : Matroska
Format version : Version 4
File size : 849 MiB
Duration : 1 h 47 min
Overall bit rate : 1 104 kb/s
Movie name : Tall.Tales.2019.1080p.WEB-DL.2CH.x265.HEVC

Video
ID : 1
Format : HEVC
Format/Info : High Efficiency Video Coding
Format profile : [email protected]@Main
Codec ID : V_MPEGH/ISO/HEVC
Duration : 1 h 47 min
Bit rate : 1 004 kb/s
Width : 1 920 pixels
Height : 804 pixels
Display aspect ratio : 2.40:1
Frame rate mode : Constant
Frame rate : 25.000 FPS
Color space : YUV
Chroma subsampling : 4:2:0
Bit depth : 8 bits
Bits/(Pixel*Frame) : 0.026
Stream size : 772 MiB (91%)
Default : Yes
Forced : No
Color range : Limited
Color primaries : BT.709
Transfer characteristics : BT.709
Matrix coefficients : BT.709

Audio
ID : 2
Format : AAC LC
Codec ID : A_AAC-2
Duration : 1 h 47 min
Bit rate : 80.4 kb/s
Channel(s) : 2 channels
Channel layout : L R
Sampling rate : 48.0 kHz
Frame rate : 46.875 FPS (1024 SPF)
Compression mode : Lossy
Delay relative to video : -21 ms
Stream size : 61.8 MiB (7%)
Title : Stereo
Language : Hungarian
Default : Yes
Forced : No

Text #1
ID : 3
Format : PGS
Muxing mode : zlib
Codec ID : S_HDMV/PGS
Duration : 1 h 43 min
Bit rate : 19.8 kb/s
Count of elements : 1291
Stream size : 14.6 MiB (2%)
Language : English
Default : Yes
Forced : Yes

Text #2
ID : 4
Format : PGS
Muxing mode : zlib
Codec ID : S_HDMV/PGS
Duration : 1 h 43 min
Bit rate : 19.7 kb/s
Count of elements : 1291
Stream size : 14.5 MiB (2%)
Language : Spanish
Default : No
Forced : No

[collapse]
Download Link(s)

Download

Direct download files get automatically deleted after a month or so. Posted on : 02/18/2020

[collapse]
Magnet Link

Magnet

Tall.Tales.2019.1080p.WEB-DL.DD5.1.H264-RK-4.0 GB

[collapse]

Media information

General
Format : Matroska
Format version : Version 4
File size : 568 MiB
Duration : 1 h 47 min
Overall bit rate : 739 kb/s
Movie name : Tall.Tales.2019.720p.WEB-DL.2CH.x265.HEVC

Video
ID : 1
Format : HEVC
Format/Info : High Efficiency Video Coding
Format profile : [email protected]@Main
Codec ID : V_MPEGH/ISO/HEVC
Duration : 1 h 47 min
Bit rate : 639 kb/s
Width : 1 280 pixels
Height : 720 pixels
Display aspect ratio : 2.40:1
Frame rate mode : Constant
Frame rate : 25.000 FPS
Color space : YUV
Chroma subsampling : 4:2:0
Bit depth : 8 bits
Bits/(Pixel*Frame) : 0.028
Stream size : 492 MiB (86%)
Default : Yes
Forced : No
Color range : Limited
Color primaries : BT.709
Transfer characteristics : BT.709
Matrix coefficients : BT.709

Audio
ID : 2
Format : AAC LC
Codec ID : A_AAC-2
Duration : 1 h 47 min
Bit rate : 80.4 kb/s
Channel(s) : 2 channels
Channel layout : L R
Sampling rate : 48.0 kHz
Frame rate : 46.875 FPS (1024 SPF)
Compression mode : Lossy
Delay relative to video : -21 ms
Stream size : 61.8 MiB (11%)
Title : Stereo
Language : Hungarian
Default : Yes
Forced : No

Text #1
ID : 3
Format : PGS
Muxing mode : zlib
Codec ID : S_HDMV/PGS
Duration : 1 h 43 min
Bit rate : 19.8 kb/s
Count of elements : 1291
Stream size : 14.6 MiB (3%)
Language : English
Default : Yes
Forced : Yes

Text #2
ID : 4
Format : PGS
Muxing mode : zlib
Codec ID : S_HDMV/PGS
Duration : 1 h 43 min
Bit rate : 19.7 kb/s
Count of elements : 1291
Stream size : 14.5 MiB (3%)
Language : Spanish
Default : No
Forced : No

[collapse]
Download Link(s)

Download

Direct download files get automatically deleted after a month or so. Posted on : 02/18/2020

[collapse]
Magnet Link

Magnet

Tall.Tales.2019.1080p.WEB-DL.DD5.1.H264-RK-4.0 GB

[collapse]

You may also like...

error: nah :p~