Article 15 (2019)

Not Rated | 2h 10min | Crime, Drama | 28 June 2019 (USA)

Set against the backdrop of Badaun gangrape and murder case (2014), Anubhav Sinha’s Article 15 is a thrilling investigative drama based on true events.

Watch trailer

Media information

General
Format : Matroska
Format version : Version 4
File size : 1.02 GiB
Duration : 2 h 5 min
Overall bit rate : 1 167 kb/s
Movie name : Article.15.2019.720p.WEB-DL.2CH.x264.AVC
Encoded date : UTC 2019-08-24 12:42:17
Writing application : mkvmerge v36.0.0 (‘Is That Jazz?’) 32-bit
Writing library : libebml v1.3.9 + libmatroska v1.5.2

Video
ID : 1
Format : AVC
Format/Info : Advanced Video Codec
Format profile : [email protected]
Format settings : CABAC / 5 Ref Frames
Format settings, CABAC : Yes
Format settings, Reference frames : 5 frames
Codec ID : V_MPEG4/ISO/AVC
Duration : 2 h 5 min
Bit rate : 1 101 kb/s
Width : 1 280 pixels
Height : 544 pixels
Display aspect ratio : 2.35:1
Frame rate mode : Constant
Frame rate : 25.000 FPS
Color space : YUV
Chroma subsampling : 4:2:0
Bit depth : 8 bits
Scan type : Progressive
Bits/(Pixel*Frame) : 0.063
Stream size : 985 MiB (94%)
Default : Yes
Forced : No

Audio
ID : 2
Format : AAC LC SBR
Commercial name : HE-AAC
Format settings : Explicit
Codec ID : A_AAC-2
Duration : 2 h 5 min
Bit rate : 64.0 kb/s
Channel(s) : 2 channels
Channel layout : L R
Sampling rate : 48.0 kHz
Frame rate : 23.438 FPS (2048 SPF)
Compression mode : Lossy
Delay relative to video : 43 ms
Stream size : 57.3 MiB (5%)
Language : Hindi
Default : Yes
Forced : Yes

Text
ID : 3
Format : UTF-8
Codec ID : S_TEXT/UTF8
Codec ID/Info : UTF-8 Plain Text
Duration : 2 h 3 min
Bit rate : 51 b/s
Count of elements : 1391
Stream size : 46.3 KiB (0%)
Title : HI
Language : English
Default : Yes
Forced : No

[collapse]
Download Link(s)

Download

Direct download files get automatically deleted after a month or so. Posted on : 08/24/2019

[collapse]
Magnet Link

Magnet

Article 15 2019 1080p NF WEB-DL DDP5.1 H.264-BonsaiHD-2.1 GB

[collapse]

You may also like...

error: nah :p~