Assassination Nation (2018)

R | 1h 48min | Comedy, Crime, Drama | 21 September 2018 (USA)

After a malicious data hack exposes the secrets of the perpetually American town of Salem, chaos decends and four girls must fight to survive, while coping with the hack themselves.

Watch trailer

Media information

General
Format : Matroska
Format version : Version 4
File size : 755 MiB
Duration : 1 h 47 min
Overall bit rate : 977 kb/s
Movie name : Assassination.Nation.2018.720p.BrRip.2CH.x265.HEVC
Encoded date : UTC 2018-12-08 21:03:56
Writing application : mkvmerge v29.0.0 (‘Like It Or Not’) 32-bit
Writing library : libebml v1.3.6 + libmatroska v1.4.9

Video
ID : 1
Format : HEVC
Format/Info : High Efficiency Video Coding
Format profile : [email protected]@Main
Codec ID : V_MPEGH/ISO/HEVC
Duration : 1 h 47 min
Bit rate : 906 kb/s
Width : 1 280 pixels
Height : 536 pixels
Display aspect ratio : 2.40:1
Frame rate mode : Constant
Frame rate : 23.976 (24000/1001) FPS
Color space : YUV
Chroma subsampling : 4:2:0
Bit depth : 8 bits
Bits/(Pixel*Frame) : 0.055
Stream size : 700 MiB (93%)
Default : Yes
Forced : No

Audio
ID : 2
Format : AAC LC SBR
Commercial name : HE-AAC
Format settings : Explicit
Codec ID : A_AAC-2
Duration : 1 h 47 min
Bit rate : 68.9 kb/s
Channel(s) : 2 channels
Channel layout : L R
Sampling rate : 48.0 kHz
Frame rate : 23.438 FPS (2048 SPF)
Compression mode : Lossy
Delay relative to video : 23 ms
Stream size : 53.2 MiB (7%)
Language : English
Default : Yes
Forced : No

Text #1
ID : 3
Format : UTF-8
Codec ID : S_TEXT/UTF8
Codec ID/Info : UTF-8 Plain Text
Duration : 1 h 38 min
Bit rate : 57 b/s
Count of elements : 1284
Stream size : 41.5 KiB (0%)
Title : ENG
Language : English
Default : Yes
Forced : No

Text #2
ID : 4
Format : UTF-8
Codec ID : S_TEXT/UTF8
Codec ID/Info : UTF-8 Plain Text
Duration : 1 h 46 min
Bit rate : 66 b/s
Count of elements : 1583
Stream size : 51.6 KiB (0%)
Title : ENG SDH
Language : English
Default : No
Forced : No

[collapse]
Download Link(s)

Download

Direct download files get automatically deleted after a month or so. Posted on : 12/08/2018

[collapse]
Magnet Link

Magnet

Assassination.Nation.2018.1080p.BluRay.x264-DRONES-7.66 GB

[collapse]

You may also like...

error: nah :p~