At First Light (2018)

First Light (original title)|1h 30min | Thriller | 10 March 2018 (USA)

The film follows a high school senior, Alex Lainey, who has an encounter with mysterious lights that appear over her small town. She soon develops dangerous, supernatural abilities and turns to her childhood friend Sean Terrel. The authorities target them and a chase ensues as officials try to discover the truth behind Alex’s transformation.

Watch trailer

Media information

General
Format : Matroska
Format version : Version 4
File size : 752 MiB
Duration : 1 h 30 min
Overall bit rate : 1 159 kb/s
Movie name : First.Light.2018.720p.WEB-DL.2CH.x264.AVC
Encoded date : UTC 2018-09-28 17:53:35
Writing application : mkvmerge v27.0.0 (‘Metropolis’) 32-bit
Writing library : libebml v1.3.6 + libmatroska v1.4.9

Video
ID : 2
Format : AVC
Format/Info : Advanced Video Codec
Format profile : [email protected]
Format settings : CABAC / 5 Ref Frames
Format settings, CABAC : Yes
Format settings, RefFrames : 5 frames
Codec ID : V_MPEG4/ISO/AVC
Duration : 1 h 30 min
Bit rate : 1 094 kb/s
Width : 1 280 pixels
Height : 542 pixels
Display aspect ratio : 2.35:1
Original display aspect ratio : 2.35:1
Frame rate mode : Constant
Frame rate : 23.976 (24000/1001) FPS
Color space : YUV
Chroma subsampling : 4:2:0
Bit depth : 8 bits
Scan type : Progressive
Bits/(Pixel*Frame) : 0.066
Stream size : 709 MiB (94%)
Default : Yes
Forced : No
Color range : Limited
Color primaries : BT.709
Transfer characteristics : BT.709
Matrix coefficients : BT.709

Audio
ID : 1
Format : AAC LC SBR
Commercial name : HE-AAC
Format settings : Explicit
Codec ID : A_AAC-2
Duration : 1 h 30 min
Bit rate : 64.0 kb/s
Channel(s) : 2 channels
Channel layout : L R
Sampling rate : 48.0 kHz
Frame rate : 23.438 FPS (2048 SPF)
Compression mode : Lossy
Delay relative to video : 31 ms
Stream size : 41.5 MiB (6%)
Language : English
Default : Yes
Forced : No

Text
ID : 3
Format : UTF-8
Codec ID : S_TEXT/UTF8
Codec ID/Info : UTF-8 Plain Text
Duration : 1 h 25 min
Bit rate : 30 b/s
Count of elements : 685
Stream size : 18.7 KiB (0%)
Language : English
Default : Yes
Forced : No

[collapse]
Download Link(s)

Download

Direct download files get automatically deleted after a month or so. Posted on : 09/28/2018

[collapse]
Magnet Link

Magnet

Source : First.Light.2018.1080p.WEB-DL.DD5.1.H264-FGT-3.15 GB

[collapse]

You may also like...

error: nah :p~