At the Heart of Gold: Inside the USA Gymnastics Scandal (2019)

1h 28min | Documentary | 3 May 2019 (USA)

In 2016, USA Gymnastics was rocked by the revelation that national team doctor Larry Nassar had been abusing young athletes for decades. Tribeca alum Erin Lee Carr’s unflinching documentary unpacks the scandal, its cover-up, and aftermath, while giving voice to the survivors.

Watch trailer

Media information

General
Format : Matroska
Format version : Version 4
File size : 750 MiB
Duration : 1 h 29 min
Overall bit rate : 1 179 kb/s
Movie name : At.the.Heart.of.Gold.Inside.the.USA.Gymnastics.Scandal.2019.720p.WEB-DL.2CH.x264.AVC
Encoded date : UTC 2019-05-05 23:25:06
Writing application : mkvmerge v33.1.0 (‘Primrose’) 32-bit
Writing library : libebml v1.3.7 + libmatroska v1.5.0

Video
ID : 1
Format : AVC
Format/Info : Advanced Video Codec
Format profile : [email protected]
Format settings : CABAC / 8 Ref Frames
Format settings, CABAC : Yes
Format settings, Reference frames : 8 frames
Codec ID : V_MPEG4/ISO/AVC
Duration : 1 h 29 min
Bit rate : 1 112 kb/s
Width : 1 280 pixels
Height : 720 pixels
Display aspect ratio : 16:9
Frame rate mode : Constant
Frame rate : 23.976 (24000/1001) FPS
Color space : YUV
Chroma subsampling : 4:2:0
Bit depth : 8 bits
Scan type : Progressive
Bits/(Pixel*Frame) : 0.050
Stream size : 708 MiB (94%)
Default : Yes
Forced : No

Audio
ID : 2
Format : AAC LC SBR
Commercial name : HE-AAC
Format settings : Explicit
Codec ID : A_AAC-2
Duration : 1 h 29 min
Bit rate : 64.0 kb/s
Channel(s) : 2 channels
Channel layout : L R
Sampling rate : 48.0 kHz
Frame rate : 23.438 FPS (2048 SPF)
Compression mode : Lossy
Delay relative to video : 43 ms
Stream size : 40.7 MiB (5%)
Language : English
Default : Yes
Forced : No

Text #1
ID : 3
Format : UTF-8
Codec ID : S_TEXT/UTF8
Codec ID/Info : UTF-8 Plain Text
Duration : 1 h 27 min
Bit rate : 107 b/s
Count of elements : 1738
Stream size : 69.0 KiB (0%)
Language : English
Default : Yes
Forced : No

Text #2
ID : 4
Format : UTF-8
Codec ID : S_TEXT/UTF8
Codec ID/Info : UTF-8 Plain Text
Duration : 1 h 27 min
Bit rate : 107 b/s
Count of elements : 1738
Stream size : 69.0 KiB (0%)
Title : SDH
Language : English
Default : No
Forced : No

[collapse]
Download Link(s)

Download

Direct download files get automatically deleted after a month or so. Posted on : 05/06/2019

[collapse]
Magnet Link

Magnet

At.the.Heart.of.Gold.Inside.the.USA.Gymnastics.Scandal.2019.1080p.AMZN.WEBRip.DDP5.1.x264-NTG-5.61 GB

[collapse]

You may also like...

error: nah :p~