Atlantic Rim 2 (2018)

1h 25min | Action, Sci-Fi | 15 February 2018 (USA)

Los Angeles is under attack by monsters. The mechs attempting to fight them off are better armed than their precursors, but so are the creatures.

Watch trailer

Media information

General
Format : Matroska
Format version : Version 4 / Version 2
File size : 708 MiB
Duration : 1 h 25 min
Overall bit rate : 1 154 kb/s
Movie name : Atlantic.Rim.2.2018.720p.BluRay.2CH.x265.HEVC
Encoded date : UTC 2018-03-24 17:00:34
Writing application : mkvmerge v21.0.0 (‘Tardigrades Will Inherit The Earth’) 32-bit
Writing library : libebml v1.3.5 + libmatroska v1.4.8

Video
ID : 1
Format : HEVC
Format/Info : High Efficiency Video Coding
Format profile : [email protected]@Main
Codec ID : V_MPEGH/ISO/HEVC
Duration : 1 h 25 min
Bit rate : 1 021 kb/s
Width : 1 280 pixels
Height : 720 pixels
Display aspect ratio : 16:9
Frame rate mode : Variable
Frame rate : 23.976 FPS
Color space : YUV
Chroma subsampling : 4:2:0
Bit depth : 8 bits
Bits/(Pixel*Frame) : 0.046
Stream size : 627 MiB (88%)
Writing library : x265 2.5+27-0e168bdeb48b:[Linux][GCC 6.4.0][64 bit] 8bit+10bit+12bit
Language : English
Default : Yes
Forced : No

Audio
ID : 2
Format : AAC
Format/Info : Advanced Audio Codec
Format profile : LC
Codec ID : A_AAC-2
Duration : 1 h 25 min
Bit rate : 132 kb/s
Channel(s) : 2 channels
Channel positions : Front: L R
Sampling rate : 48.0 kHz
Frame rate : 46.875 FPS (1024 SPF)
Compression mode : Lossy
Stream size : 80.2 MiB (11%)
Language : English
Default : Yes
Forced : No

Text
ID : 3
Format : UTF-8
Codec ID : S_TEXT/UTF8
Codec ID/Info : UTF-8 Plain Text
Duration : 1 h 25 min
Bit rate : 67 b/s
Count of elements : 1435
Stream size : 42.3 KiB (0%)
Default : Yes
Forced : No

[collapse]
Download Link(s)

Download

Direct download files get automatically deleted after a month or so. Posted on : 03/24/2018

[collapse]
Magnet Link

Magnet

Source : Atlantic.Rim.2.2018.1080p.BluRay.x264-RUSTED-6.55 GB

[collapse]

You may also like...

error: nah :p~