Aura (2018)

Horror | 8 November 2018 (UK)

A couple discover Kirlian Photography apparatus in their new house. Intrigued by the concept of photographing peoples’ Auras they unwittingly release an ancient evil. Only the local psychic can help and she knows far more than she reveals.

Watch trailer

Media information

General
Format : Matroska
Format version : Version 4 / Version 2
File size : 652 MiB
Duration : 1 h 22 min
Overall bit rate : 1 109 kb/s
Movie name : Aura.2018.720p.WEB-DL.2CH.x264.AVC
Encoded date : UTC 2018-08-08 07:52:27
Writing application : mkvmerge v25.0.0 (‘Prog Noir’) 32-bit
Writing library : libebml v1.3.6 + libmatroska v1.4.9

Video
ID : 1
Format : AVC
Format/Info : Advanced Video Codec
Format profile : [email protected]
Format settings : CABAC / 4 Ref Frames
Format settings, CABAC : Yes
Format settings, RefFrames : 4 frames
Codec ID : V_MPEG4/ISO/AVC
Duration : 1 h 22 min
Bit rate : 1 000 kb/s
Width : 1 280 pixels
Height : 558 pixels
Display aspect ratio : 2.25:1
Frame rate mode : Constant
Frame rate : 25.000 FPS
Color space : YUV
Chroma subsampling : 4:2:0
Bit depth : 8 bits
Scan type : Progressive
Bits/(Pixel*Frame) : 0.056
Stream size : 575 MiB (88%)
Default : Yes
Forced : No
Color range : Limited
Color primaries : BT.709
Transfer characteristics : BT.709
Matrix coefficients : BT.709

Audio
ID : 2
Format : AAC
Format/Info : Advanced Audio Codec
Format profile : HE-AAC / LC
Format settings : NBC
Codec ID : A_AAC-5
Duration : 1 h 22 min
Bit rate : 128 kb/s
Channel(s) : 2 channels
Channel positions : Front: L R
Sampling rate : 48.0 kHz / 24.0 kHz
Frame rate : 23.438 FPS (1024 SPF)
Compression mode : Lossy
Delay relative to video : -105 ms
Stream size : 75.2 MiB (12%)
Language : English
Default : Yes
Forced : No

Text
ID : 3
Format : ASS
Codec ID : S_TEXT/ASS
Codec ID/Info : Advanced Sub Station Alpha
Duration : 1 h 19 min
Bit rate : 103 b/s
Count of elements : 1256
Compression mode : Lossless
Stream size : 60.0 KiB (0%)
Language : English
Default : No
Forced : No

[collapse]
Download Link(s)

Download

Direct download files get automatically deleted after a month or so. Posted on : 08/08/2018

[collapse]
Magnet Link

Magnet

Source : Aura.2018.1080p.AMZN.WEBRip.DDP5.1.x264-NTG-3.21 GB

[collapse]

You may also like...

error: nah :p~