Back Fork (2019)

1h 38min | Drama | 9 April 2019 (USA)

When the strain of tragedy was too much for a young couple in Appalachia, prescription pills became the medicine to ease the pain.

Watch trailer

Media information

General
Format : Matroska
Format version : Version 4
File size : 799 MiB
Duration : 1 h 38 min
Overall bit rate : 1 139 kb/s
Movie name : Back.Fork.2019.720p.WEB-DL.2CH.x264.AVC
Encoded date : UTC 2019-04-09 16:04:26
Writing application : mkvmerge v32.0.0 (‘Astral Progressions’) 32-bit
Writing library : libebml v1.3.7 + libmatroska v1.5.0

Video
ID : 3
Format : AVC
Format/Info : Advanced Video Codec
Format profile : [email protected]
Format settings : CABAC / 8 Ref Frames
Format settings, CABAC : Yes
Format settings, RefFrames : 8 frames
Codec ID : V_MPEG4/ISO/AVC
Duration : 1 h 38 min
Bit rate : 1 074 kb/s
Width : 1 280 pixels
Height : 662 pixels
Display aspect ratio : 1.934
Frame rate mode : Constant
Frame rate : 23.976 (24000/1001) FPS
Color space : YUV
Chroma subsampling : 4:2:0
Bit depth : 8 bits
Scan type : Progressive
Bits/(Pixel*Frame) : 0.053
Stream size : 753 MiB (94%)
Default : Yes
Forced : No

Audio
ID : 4
Format : AAC LC SBR
Commercial name : HE-AAC
Format settings : Explicit
Codec ID : A_AAC-2
Duration : 1 h 38 min
Bit rate : 64.0 kb/s
Channel(s) : 2 channels
Channel layout : L R
Sampling rate : 48.0 kHz
Frame rate : 23.438 FPS (2048 SPF)
Compression mode : Lossy
Delay relative to video : 1 ms
Stream size : 44.9 MiB (6%)
Language : English
Default : Yes
Forced : No

Text #1
ID : 1
Format : UTF-8
Codec ID : S_TEXT/UTF8
Codec ID/Info : UTF-8 Plain Text
Duration : 1 h 28 min
Bit rate : 43 b/s
Count of elements : 1107
Stream size : 27.9 KiB (0%)
Language : English
Default : Yes
Forced : No

Text #2
ID : 2
Format : UTF-8
Codec ID : S_TEXT/UTF8
Codec ID/Info : UTF-8 Plain Text
Duration : 1 h 33 min
Bit rate : 45 b/s
Count of elements : 1262
Stream size : 30.9 KiB (0%)
Title : HI
Language : English
Default : No
Forced : No

[collapse]
Download Link(s)

Download

Direct download files get automatically deleted after a month or so. Posted on : 04/10/2019

[collapse]
Magnet Link

Magnet

Back.Fork.2019.HDRip.XviD.AC3-EVO-1.4 GB

[collapse]

You may also like...

error: nah :p~