Back Roads (2018)

1h 41min | Drama, Thriller | 7 December 2018 (USA)

“Back Roads” centers on a young man stuck in the Pennsylvania backwoods caring for his three younger sisters after the shooting death of his abusive father and the arrest of his mother. Family secrets and unspoken truths threaten to consume him.

Watch trailer

Media information

General
Format : Matroska
Format version : Version 4
File size : 581 MiB
Duration : 1 h 41 min
Overall bit rate : 803 kb/s
Movie name : Back.Roads.2018.720p.WEB-DL.2CH.x265.HEVC
Encoded date : UTC 2018-12-07 17:13:41
Writing application : mkvmerge v29.0.0 (‘Like It Or Not’) 32-bit
Writing library : libebml v1.3.6 + libmatroska v1.4.9

Video
ID : 1
Format : HEVC
Format/Info : High Efficiency Video Coding
Format profile : [email protected]@Main
Codec ID : V_MPEGH/ISO/HEVC
Duration : 1 h 41 min
Bit rate : 734 kb/s
Width : 1 280 pixels
Height : 688 pixels
Display aspect ratio : 1.85:1
Frame rate mode : Constant
Frame rate : 23.976 (24000/1001) FPS
Color space : YUV
Chroma subsampling : 4:2:0
Bit depth : 8 bits
Bits/(Pixel*Frame) : 0.035
Stream size : 531 MiB (91%)
Default : Yes
Forced : No

Audio
ID : 2
Format : AAC LC SBR
Commercial name : HE-AAC
Format settings : Explicit
Codec ID : A_AAC-2
Duration : 1 h 41 min
Bit rate : 66.2 kb/s
Channel(s) : 2 channels
Channel layout : L R
Sampling rate : 48.0 kHz
Frame rate : 23.438 FPS (2048 SPF)
Compression mode : Lossy
Delay relative to video : 23 ms
Stream size : 48.3 MiB (8%)
Language : English
Default : Yes
Forced : No

Text
ID : 3
Format : UTF-8
Codec ID : S_TEXT/UTF8
Codec ID/Info : UTF-8 Plain Text
Duration : 1 h 35 min
Bit rate : 46 b/s
Count of elements : 1188
Stream size : 32.5 KiB (0%)
Language : English
Default : Yes
Forced : No

[collapse]
Download Link(s)

Download

Direct download files get automatically deleted after a month or so. Posted on : 12/08/2018

[collapse]
Magnet Link

Magnet

Back.Roads.2018.1080p.WEB-DL.DD5.1.H264-FGT-3.90 GB

[collapse]

You may also like...

error: nah :p~