Back to the Future (1985)

PG | 1h 56min | Adventure, Comedy, Sci-Fi | 3 July 1985 (USA)

Marty McFly, a 17-year-old high school student, is accidentally sent thirty years into the past in a time-traveling DeLorean invented by his close friend, the maverick scientist Doc Brown.

Watch trailer

Media information

General
Format : Matroska
Format version : Version 4 / Version 2
File size : 894 MiB
Duration : 1 h 56 min
Overall bit rate : 1 076 kb/s
Movie name : Back.to.the.future.1985.720p.BluRay.2CH.x265.HEVC
Encoded date : UTC 2018-06-24 14:14:15
Writing application : mkvmerge v24.0.0 (‘Beyond The Pale’) 32-bit
Writing library : libebml v1.3.6 + libmatroska v1.4.9

Video
ID : 1
Format : HEVC
Format/Info : High Efficiency Video Coding
Format profile : [email protected]@Main
Codec ID : V_MPEGH/ISO/HEVC
Duration : 1 h 56 min
Bit rate : 953 kb/s
Width : 1 280 pixels
Height : 720 pixels
Display aspect ratio : 1.85:1
Frame rate mode : Constant
Frame rate : 23.976 (24000/1001) FPS
Color space : YUV
Chroma subsampling : 4:2:0
Bit depth : 8 bits
Bits/(Pixel*Frame) : 0.043
Stream size : 791 MiB (89%)
Default : Yes
Forced : No
Color range : Limited
Color primaries : BT.709
Transfer characteristics : BT.709
Matrix coefficients : BT.709

Audio
ID : 2
Format : Opus
Codec ID : A_OPUS
Duration : 1 h 56 min
Bit rate : 121 kb/s
Channel(s) : 2 channels
Channel positions : Front: L R
Sampling rate : 48.0 kHz
Frame rate : 50.000 FPS (960 SPF)
Compression mode : Lossy
Delay relative to video : -7 ms
Stream size : 100 MiB (11%)
Title : Stereo
Default : Yes
Forced : No

Text
ID : 3
Format : ASS
Codec ID : S_TEXT/ASS
Codec ID/Info : Advanced Sub Station Alpha
Duration : 1 h 51 min
Bit rate : 114 b/s
Count of elements : 1775
Compression mode : Lossless
Stream size : 93.2 KiB (0%)
Language : English
Default : Yes
Forced : Yes

[collapse]
Download Link(s)

Download

[RE-UP] Direct download files get automatically deleted after a month or so. Posted on : 06/24/2018

[collapse]
Magnet Link

Magnet

Source : Back.to.the.Future.1985.1080p.BluRay.x264-NODLABS-8.02 GB

[collapse]

You may also like...

error: nah :p~