Back to the Future Part II (1989)

PG | 1h 48min | Adventure, Comedy, Sci-Fi | 22 November 1989 (USA)

After visiting 2015, Marty McFly must repeat his visit to 1955 to prevent disastrous changes to 1985…without interfering with his first trip.

Watch trailer

Media information

General
Format : Matroska
Format version : Version 4 / Version 2
File size : 747 MiB
Duration : 1 h 48 min
Overall bit rate : 966 kb/s
Movie name : Back.to.the.future.part.ii.1989.720p.BluRay.2CH.x265.HEVC
Encoded date : UTC 2018-06-24 14:16:18
Writing application : mkvmerge v24.0.0 (‘Beyond The Pale’) 32-bit
Writing library : libebml v1.3.6 + libmatroska v1.4.9

Video
ID : 1
Format : HEVC
Format/Info : High Efficiency Video Coding
Format profile : [email protected]@Main
Codec ID : V_MPEGH/ISO/HEVC
Duration : 1 h 48 min
Bit rate : 843 kb/s
Width : 1 280 pixels
Height : 720 pixels
Display aspect ratio : 1.85:1
Frame rate mode : Constant
Frame rate : 23.976 (24000/1001) FPS
Color space : YUV
Chroma subsampling : 4:2:0
Bit depth : 8 bits
Bits/(Pixel*Frame) : 0.038
Stream size : 652 MiB (87%)
Default : Yes
Forced : No
Color range : Limited
Color primaries : BT.709
Transfer characteristics : BT.709
Matrix coefficients : BT.709

Audio
ID : 2
Format : Opus
Codec ID : A_OPUS
Duration : 1 h 48 min
Bit rate : 121 kb/s
Channel(s) : 2 channels
Channel positions : Front: L R
Sampling rate : 48.0 kHz
Frame rate : 50.000 FPS (960 SPF)
Compression mode : Lossy
Delay relative to video : -7 ms
Stream size : 93.3 MiB (12%)
Title : Stereo
Language : English
Default : Yes
Forced : No

Text
ID : 3
Format : ASS
Codec ID : S_TEXT/ASS
Codec ID/Info : Advanced Sub Station Alpha
Duration : 1 h 42 min
Bit rate : 119 b/s
Count of elements : 1653
Compression mode : Lossless
Stream size : 89.6 KiB (0%)
Language : English
Default : Yes
Forced : Yes

[collapse]
Download Link(s)

Download

[RE-UP] Direct download files get automatically deleted after a month or so. Posted on : 06/24/2018

[collapse]
Magnet Link

Magnet

Source : Back.To.The.Future.Part.II.1989.1080p.BluRay.X264-LCHD-7.96 GB

[collapse]

You may also like...

error: nah :p~