Back to the Future Part III (1990)

PG | 1h 58min | Adventure, Comedy, Sci-Fi | 25 May 1990 (USA)

Enjoying a peaceable existence in 1885, Doctor Emmet Brown is about to be killed by Buford “Mad Dog” Tannen. Marty McFly travels back in time to save his friend.

Watch trailer

Media information

General
Format : Matroska
Format version : Version 4 / Version 2
File size : 872 MiB
Duration : 1 h 58 min
Overall bit rate : 1 029 kb/s
Movie name : Back.To.The.Future.Part.III.1990.720p.BluRay.2CH.x265.HEVC
Encoded date : UTC 2018-06-24 14:18:10
Writing application : mkvmerge v24.0.0 (‘Beyond The Pale’) 32-bit
Writing library : libebml v1.3.6 + libmatroska v1.4.9

Video
ID : 1
Format : HEVC
Format/Info : High Efficiency Video Coding
Format profile : [email protected]@Main
Codec ID : V_MPEGH/ISO/HEVC
Duration : 1 h 58 min
Bit rate : 875 kb/s
Width : 1 280 pixels
Height : 720 pixels
Display aspect ratio : 1.85:1
Frame rate mode : Constant
Frame rate : 23.976 (24000/1001) FPS
Color space : YUV
Chroma subsampling : 4:2:0
Bit depth : 8 bits
Bits/(Pixel*Frame) : 0.040
Stream size : 741 MiB (85%)
Default : Yes
Forced : No
Color range : Limited
Color primaries : BT.709
Transfer characteristics : BT.709
Matrix coefficients : BT.709

Audio
ID : 2
Format : Opus
Codec ID : A_OPUS
Duration : 1 h 58 min
Bit rate : 152 kb/s
Channel(s) : 2 channels
Channel positions : Front: L R
Sampling rate : 48.0 kHz
Frame rate : 50.000 FPS (960 SPF)
Compression mode : Lossy
Delay relative to video : -7 ms
Stream size : 129 MiB (15%)
Title : Stereo
Language : English
Default : Yes
Forced : No

Text
ID : 3
Format : ASS
Codec ID : S_TEXT/ASS
Codec ID/Info : Advanced Sub Station Alpha
Duration : 1 h 50 min
Bit rate : 115 b/s
Count of elements : 1776
Compression mode : Lossless
Stream size : 93.6 KiB (0%)
Language : English
Default : Yes
Forced : Yes

[collapse]
Download Link(s)

Download

[RE-UP] Direct download files get automatically deleted after a month or so. Posted on : 06/24/2018

[collapse]
Magnet Link

Magnet

Source : Back.To.The.Future.Part.III.1990.1080p.BluRay.X264-LCHD-7.98 GB

[collapse]

You may also like...

error: nah :p~