Bacurau (2019)

2h 11min | Action, Adventure, Mystery | 6 March 2020 (USA)

After the death of her grandmother, Teresa comes home to her matriarchal village in a near-future Brazil to find a succession of sinister events that mobilizes all of its residents.

Watch trailer

Media information

General
Format : Matroska
Format version : Version 4
File size : 1.19 GiB
Duration : 2 h 11 min
Overall bit rate : 1 298 kb/s
Movie name : Bacurau.2019.PORTUGUESE.720p.WEBRip.2CH.x265.HEVC

Video
ID : 1
Format : HEVC
Format/Info : High Efficiency Video Coding
Format profile : [email protected]@Main
Codec ID : V_MPEGH/ISO/HEVC
Duration : 2 h 11 min
Bit rate : 1 216 kb/s
Width : 1 280 pixels
Height : 720 pixels
Display aspect ratio : 2.40:1
Frame rate mode : Constant
Frame rate : 24.000 FPS
Color space : YUV
Chroma subsampling : 4:2:0
Bit depth : 8 bits
Bits/(Pixel*Frame) : 0.055
Stream size : 1.12 GiB (94%)
Default : Yes
Forced : No
Color range : Limited
Color primaries : BT.709
Transfer characteristics : BT.709
Matrix coefficients : BT.709

Audio
ID : 2
Format : AAC LC
Codec ID : A_AAC-2
Duration : 2 h 11 min
Bit rate : 79.9 kb/s
Channel(s) : 2 channels
Channel layout : L R
Sampling rate : 44.1 kHz
Frame rate : 43.066 FPS (1024 SPF)
Compression mode : Lossy
Delay relative to video : -23 ms
Stream size : 75.1 MiB (6%)
Title : Stereo
Language : Portuguese
Default : Yes
Forced : No

Text
ID : 3
Format : ASS
Codec ID : S_TEXT/ASS
Duration : 1 h 59 min
Bit rate : 42 b/s
Count of elements : 782
Compression mode : Lossless
Stream size : 36.8 KiB (0%)
Language : English
Default : Yes
Forced : Yes

[collapse]
Download Link(s)

Download

Direct download files get automatically deleted after a month or so. Posted on : 01/27/2020

[collapse]
Magnet Link

Magnet

Bacurau.2019.PORTUGUESE.1080p.AMZN.WEBRip.DDP2.0.x264-NOGRP- 6.50 GB

[collapse]

You may also like...

error: nah :p~