Bad Genius (2017)

2h 10min | Comedy, Crime, Drama | 3 May 2017 (Thailand)

Lynn, a genius high school student who makes money by cheating tests, receives a new task that leads her to set foot on Sydney, Australia. In order to complete the millions-Baht task, Lynn and her classmates have to finish the international STIC(SAT) exam and deliver the answers back to her friends in Thailand before the exam takes place once again in her home country.

Watch trailer

Media information

General
Format : Matroska
Format version : Version 4 / Version 2
File size : 810 MiB
Duration : 2 h 9 min
Overall bit rate : 872 kb/s
Movie name : Bad.Genius.2017.1080p.BluRay.2CH.x265.HEVC
Encoded date : UTC 2018-07-23 15:44:33
Writing application : mkvmerge v25.0.0 (‘Prog Noir’) 32-bit
Writing library : libebml v1.3.6 + libmatroska v1.4.9

Video
ID : 1
Format : HEVC
Format/Info : High Efficiency Video Coding
Format profile : [email protected]@Main
Codec ID : V_MPEGH/ISO/HEVC
Duration : 2 h 9 min
Bit rate : 748 kb/s
Width : 1 920 pixels
Height : 804 pixels
Display aspect ratio : 2.40:1
Frame rate mode : Constant
Frame rate : 24.000 FPS
Color space : YUV
Chroma subsampling : 4:2:0
Bit depth : 8 bits
Bits/(Pixel*Frame) : 0.020
Stream size : 695 MiB (86%)
Default : Yes
Forced : No
Color range : Limited
Color primaries : BT.709
Transfer characteristics : BT.709
Matrix coefficients : BT.709

Audio
ID : 2
Format : Opus
Codec ID : A_OPUS
Duration : 2 h 9 min
Bit rate : 122 kb/s
Channel(s) : 2 channels
Channel positions : Front: L R
Sampling rate : 48.0 kHz
Frame rate : 50.000 FPS (960 SPF)
Compression mode : Lossy
Delay relative to video : 25 ms
Stream size : 113 MiB (14%)
Title : Stereo
Language : Thai
Default : Yes
Forced : No

Text
ID : 3
Format : ASS
Codec ID : S_TEXT/ASS
Codec ID/Info : Advanced Sub Station Alpha
Duration : 2 h 3 min
Bit rate : 77 b/s
Count of elements : 1214
Compression mode : Lossless
Stream size : 69.6 KiB (0%)
Language : English
Default : Yes
Forced : Yes

[collapse]
Download Link(s)

Download

[RE-UP]-Direct download files get automatically deleted after a month or so. Posted on : 11/09/2018

[collapse]
Magnet Link

Magnet

Source : Bad Genius 2017 WEB-DL 1080p H264 AAC AC3-NamelessTV-4.6 GB

[collapse]

You may also like...

error: nah :p~