Beauty and the Dogs (2017)

Aala Kaf Ifrit (original title)|1h 40min | Crime, Drama, Thriller | 18 October 2017 (France)

During a student party, Mariam, a young Tunisian woman, meets the mysterious Youssef and leaves with him. A long night will begin, during which she’ll have to fight for her rights and her dignity. But how can Justice be made when it lies on the side of the tormentors?

Watch trailer

Media information

General
Format : Matroska
Format version : Version 4 / Version 2
File size : 952 MiB
Duration : 1 h 40 min
Overall bit rate : 1 329 kb/s
Movie name : Beauty.and.the.Dogs.2017.720p.BluRay.2CH.x264.AVC
Encoded date : UTC 2018-08-19 14:16:27
Writing application : mkvmerge v25.0.0 (‘Prog Noir’) 32-bit
Writing library : libebml v1.3.6 + libmatroska v1.4.9

Video
ID : 2
Format : AVC
Format/Info : Advanced Video Codec
Format profile : [email protected]
Format settings : CABAC / 9 Ref Frames
Format settings, CABAC : Yes
Format settings, RefFrames : 9 frames
Codec ID : V_MPEG4/ISO/AVC
Duration : 1 h 40 min
Bit rate : 1 227 kb/s
Width : 1 280 pixels
Height : 536 pixels
Display aspect ratio : 2.40:1
Frame rate mode : Constant
Frame rate : 23.976 (24000/1001) FPS
Color space : YUV
Chroma subsampling : 4:2:0
Bit depth : 8 bits
Scan type : Progressive
Bits/(Pixel*Frame) : 0.075
Stream size : 879 MiB (92%)
Default : Yes
Forced : No

Audio
ID : 1
Format : AAC
Format/Info : Advanced Audio Codec
Format profile : HE-AAC / LC
Format settings : Explicit
Codec ID : A_AAC-2
Duration : 1 h 40 min
Bit rate : 100.0 kb/s
Channel(s) : 2 channels
Channel positions : Front: L R
Sampling rate : 48.0 kHz / 24.0 kHz
Frame rate : 23.438 FPS (1024 SPF)
Compression mode : Lossy
Delay relative to video : 31 ms
Stream size : 71.6 MiB (8%)
Language : Arabic
Default : Yes
Forced : No

Text
ID : 3
Format : UTF-8
Codec ID : S_TEXT/UTF8
Codec ID/Info : UTF-8 Plain Text
Duration : 1 h 33 min
Bit rate : 53 b/s
Count of elements : 1175
Stream size : 36.3 KiB (0%)
Language : English
Default : Yes
Forced : No

[collapse]
Download Link(s)

Download

Direct download files get automatically deleted after a month or so. Posted on : 08/19/2018

[collapse]
Magnet Link

Magnet

Source : Beauty.and.the.Dogs.2017.1080p.BluRay.x264-DEPTH-8.74 GB

[collapse]

You may also like...

error: nah :p~