Berlin, I Love You (2019)

R | 2h | Drama, Romance | 8 February 2019 (USA)

Latest installment of the Cities of Love series (Paris, je t’aime / New York, I Love You / Rio, Eu Te Amo), this collective feature-film is made of ten stories of romance set in the German capital.

Watch trailer

Media information

General
Format : Matroska
Format version : Version 4
File size : 950 MiB
Duration : 1 h 59 min
Overall bit rate : 1 109 kb/s
Movie name : Berlin.I.Love.You.2019.720p.WEB-DL.2CH.x264.AVC
Encoded date : UTC 2019-02-10 11:25:59
Writing application : mkvmerge v31.0.0 (‘Dolores In A Shoestand’) 32-bit
Writing library : libebml v1.3.6 + libmatroska v1.4.9

Video
ID : 2
Format : AVC
Format/Info : Advanced Video Codec
Format profile : [email protected]
Format settings : CABAC / 8 Ref Frames
Format settings, CABAC : Yes
Format settings, RefFrames : 8 frames
Codec ID : V_MPEG4/ISO/AVC
Duration : 1 h 59 min
Bit rate : 1 043 kb/s
Width : 1 280 pixels
Height : 688 pixels
Display aspect ratio : 1.85:1
Frame rate mode : Constant
Frame rate : 23.976 (24000/1001) FPS
Color space : YUV
Chroma subsampling : 4:2:0
Bit depth : 8 bits
Scan type : Progressive
Bits/(Pixel*Frame) : 0.049
Stream size : 894 MiB (94%)
Default : Yes
Forced : No

Audio
ID : 3
Format : AAC LC SBR
Commercial name : HE-AAC
Format settings : Explicit
Codec ID : A_AAC-2
Duration : 1 h 59 min
Bit rate : 64.0 kb/s
Channel(s) : 2 channels
Channel layout : L R
Sampling rate : 48.0 kHz
Frame rate : 23.438 FPS (2048 SPF)
Compression mode : Lossy
Delay relative to video : 1 ms
Stream size : 54.9 MiB (6%)
Language : English
Default : Yes
Forced : No

Text
ID : 1
Format : UTF-8
Codec ID : S_TEXT/UTF8
Codec ID/Info : UTF-8 Plain Text
Duration : 1 h 58 min
Bit rate : 47 b/s
Count of elements : 1458
Stream size : 40.9 KiB (0%)
Language : English
Default : Yes
Forced : No

[collapse]
Download Link(s)

Download

Direct download files get automatically deleted after a month or so. Posted on : 02/10/2019

[collapse]
Magnet Link

Magnet

Berlin.I.Love.You.2019.1080p.WEB-DL.DD5.1.H264-FGT-4.66 GB

[collapse]

You may also like...

error: nah :p~