BET Awards 2018

Music | TV Special 24 June 2018

Jamie Foxx returns to host BET’s 18th annual event honoring top entertainers.

Watch trailer

Media information

General
Format : Matroska
Format version : Version 4 / Version 2
File size : 1.92 GiB
Duration : 2 h 23 min
Overall bit rate : 1 917 kb/s
Movie name : Bet.Awards.2018.720p.HDTV.2CH.x265.HEVC
Encoded date : UTC 2018-06-28 06:24:39
Writing application : mkvmerge v24.0.0 (‘Beyond The Pale’) 32-bit
Writing library : libebml v1.3.6 + libmatroska v1.4.9

Video
ID : 1
Format : HEVC
Format/Info : High Efficiency Video Coding
Format profile : [email protected]@Main
Codec ID : V_MPEGH/ISO/HEVC
Duration : 2 h 23 min
Bit rate : 1 822 kb/s
Width : 1 280 pixels
Height : 720 pixels
Display aspect ratio : 16:9
Frame rate mode : Constant
Frame rate : 23.976 (24000/1001) FPS
Color space : YUV
Chroma subsampling : 4:2:0
Bit depth : 8 bits
Bits/(Pixel*Frame) : 0.082
Stream size : 1.83 GiB (95%)
Default : Yes
Forced : No
Color range : Limited
Color primaries : BT.709
Transfer characteristics : BT.709
Matrix coefficients : BT.709

Audio
ID : 2
Format : Opus
Codec ID : A_OPUS
Duration : 2 h 23 min
Bit rate : 92.9 kb/s
Channel(s) : 2 channels
Channel positions : Front: L R
Sampling rate : 48.0 kHz
Frame rate : 50.000 FPS (960 SPF)
Compression mode : Lossy
Delay relative to video : 21 ms
Stream size : 95.5 MiB (5%)
Title : Stereo
Default : Yes
Forced : No

[collapse]
Download Link(s)

Part01 Part02

Direct download files get automatically deleted after a month or so. Posted on : 06/29/2018

[collapse]
Magnet Link

Magnet

Source : BET.Awards.2018.720p.HDTV.x264-CRiMSON-4.53 GB

[collapse]

You may also like...

error: nah :p~