Between Worlds (2018)

1h 30min | Action , Mystery , Thriller | 22 September 2018 (USA)

The story follows Joe, (Cage), a down-on-his-luck truck driver haunted by the memory of his deceased wife and child. He meets Julie (Potente), a spiritually gifted woman who enlists Joe in a desperate effort to find the lost soul of her comatose daughter, Billie (Mitchell). But the spirit of Joe’s dead wife Mary proves stronger, possessing the young woman’s body and determined to settle her unfinished business with the living.

Media information

General
Format : Matroska
Format version : Version 4
File size : 852 MiB
Duration : 1 h 30 min
Overall bit rate : 1 319 kb/s
Movie name : Between.Worlds.2018.720p.BluRay.2CH.x264.AVC
Encoded date : UTC 2018-10-09 10:14:36
Writing application : mkvmerge v27.0.0 (‘Metropolis’) 32-bit
Writing library : libebml v1.3.6 + libmatroska v1.4.9

Video
ID : 2
Format : AVC
Format/Info : Advanced Video Codec
Format profile : [email protected]
Format settings : CABAC / 9 Ref Frames
Format settings, CABAC : Yes
Format settings, RefFrames : 9 frames
Codec ID : V_MPEG4/ISO/AVC
Duration : 1 h 30 min
Bit rate : 1 217 kb/s
Width : 1 280 pixels
Height : 694 pixels
Display aspect ratio : 1.85:1
Frame rate mode : Constant
Frame rate : 23.976 (24000/1001) FPS
Color space : YUV
Chroma subsampling : 4:2:0
Bit depth : 8 bits
Scan type : Progressive
Bits/(Pixel*Frame) : 0.057
Stream size : 786 MiB (92%)
Default : Yes
Forced : No

Audio
ID : 1
Format : AAC LC SBR
Commercial name : HE-AAC
Format settings : Explicit
Codec ID : A_AAC-2
Duration : 1 h 30 min
Bit rate : 100.0 kb/s
Channel(s) : 2 channels
Channel layout : L R
Sampling rate : 48.0 kHz
Frame rate : 23.438 FPS (2048 SPF)
Compression mode : Lossy
Delay relative to video : 31 ms
Stream size : 64.6 MiB (8%)
Language : English
Default : Yes
Forced : No

Text
ID : 3
Format : UTF-8
Codec ID : S_TEXT/UTF8
Codec ID/Info : UTF-8 Plain Text
Duration : 1 h 19 min
Bit rate : 53 b/s
Count of elements : 1138
Stream size : 31.4 KiB (0%)
Default : Yes
Forced : No

[collapse]
Download Link(s)

Download

Direct download files get automatically deleted after a month or so. Posted on : 10/09/2018

[collapse]
Magnet Link

Magnet

Source : Between.Worlds.2018.1080p.BluRay.x264.DTS-FGT-8.21 GB

[collapse]

You may also like...

error: nah :p~