Beyond Skyline (2017)

R | 1h 45min | Action, Adventure, Horror | 15 December 2017 (USA)

A tough-as-nails detective embarks on a relentless pursuit to free his son from a nightmarish alien warship.

Watch trailer

Media information

General
Format : Matroska
Format version : Version 4 / Version 2
File size : 1 006 MiB
Duration : 1 h 46 min
Overall bit rate : 1 319 kb/s
Movie name : Beyond.Skyline.2017.720p.10bit.BluRay.6CH.x265.HEVC
Encoded date : UTC 2018-08-30 18:59:28
Writing application : mkvmerge v26.0.0 (‘In The Game’) 32-bit
Writing library : libebml v1.3.6 + libmatroska v1.4.9

Video
ID : 1
Format : HEVC
Format/Info : High Efficiency Video Coding
Format profile : Main [email protected]@Main
Codec ID : V_MPEGH/ISO/HEVC
Duration : 1 h 46 min
Bit rate : 1 102 kb/s
Width : 1 280 pixels
Height : 536 pixels
Display aspect ratio : 2.40:1
Frame rate mode : Constant
Frame rate : 23.976 (24000/1001) FPS
Color space : YUV
Chroma subsampling : 4:2:0
Bit depth : 10 bits
Bits/(Pixel*Frame) : 0.067
Stream size : 841 MiB (84%)
Default : Yes
Forced : No

Audio
ID : 2
Format : AAC
Format/Info : Advanced Audio Codec
Format profile : HE-AAC / LC
Format settings : Explicit
Codec ID : A_AAC-2
Duration : 1 h 46 min
Bit rate : 214 kb/s
Channel(s) : 6 channels
Channel positions : Front: L C R, Side: L R, LFE
Sampling rate : 48.0 kHz / 24.0 kHz
Frame rate : 23.438 FPS (1024 SPF)
Compression mode : Lossy
Delay relative to video : 23 ms
Stream size : 164 MiB (16%)
Default : Yes
Forced : No

Text
ID : 3
Format : UTF-8
Codec ID : S_TEXT/UTF8
Codec ID/Info : UTF-8 Plain Text
Duration : 1 h 41 min
Bit rate : 28 b/s
Count of elements : 774
Stream size : 21.3 KiB (0%)
Language : English
Default : Yes
Forced : No

[collapse]
Download Link(s)

Download

[RE-UP]-Direct download files get automatically deleted after a month or so. Posted on : 08/30/2018

[collapse]
Magnet Link

Magnet

Source : Beyond.Skyline.2017.1080p.BluRay.REMUX.AVC.DTS-HD.MA.5.1-FGT-28.71 GB

[collapse]

You may also like...

error: nah :p~