Big Time Adolescence (2019)

R | 1h 31min | Comedy | 20 March 2020 (USA)

A suburban teenager comes of age under the destructive guidance of his best friend, an aimless college dropout.

Watch trailer

Media information

General
Format : Matroska
Format version : Version 4
File size : 374 MiB
Duration : 1 h 30 min
Overall bit rate : 576 kb/s
Movie name : Big.Time.Adolescence.2019.720p.WEBRip.2CH.x265.HEVC

Video
ID : 1
Format : HEVC
Format/Info : High Efficiency Video Coding
Format profile : [email protected]@Main
Codec ID : V_MPEGH/ISO/HEVC
Duration : 1 h 30 min
Bit rate : 493 kb/s
Width : 1 280 pixels
Height : 720 pixels
Display aspect ratio : 1.85:1
Frame rate mode : Constant
Frame rate : 24.000 FPS
Color space : YUV
Chroma subsampling : 4:2:0
Bit depth : 8 bits
Bits/(Pixel*Frame) : 0.022
Stream size : 320 MiB (86%)
Default : Yes
Forced : No
Color range : Limited
Color primaries : BT.709
Transfer characteristics : BT.709
Matrix coefficients : BT.709

Audio
ID : 2
Format : AAC LC
Codec ID : A_AAC-2
Duration : 1 h 30 min
Bit rate : 80.2 kb/s
Channel(s) : 2 channels
Channel layout : L R
Sampling rate : 48.0 kHz
Frame rate : 46.875 FPS (1024 SPF)
Compression mode : Lossy
Delay relative to video : -21 ms
Stream size : 52.1 MiB (14%)
Title : Stereo
Language : English
Default : Yes
Forced : No

Text #1
ID : 3
Format : ASS
Codec ID : S_TEXT/ASS
Duration : 1 h 30 min
Bit rate : 153 b/s
Count of elements : 1694
Compression mode : Lossless
Stream size : 101 KiB (0%)
Language : English
Default : Yes
Forced : Yes

Text #2
ID : 4
Format : ASS
Codec ID : S_TEXT/ASS
Duration : 1 h 26 min
Bit rate : 149 b/s
Count of elements : 1623
Compression mode : Lossless
Stream size : 95.1 KiB (0%)
Language : Spanish
Default : No
Forced : No

[collapse]
Download Link(s)

Download

Direct download files get automatically deleted after a month or so. Posted on : 03/25/2020

[collapse]
Magnet Link

Magnet

Big.Time.Adolescence.2019.1080p.HULU.WEBRip.DDP5.1.x264-TEPES-2.58 GB

[collapse]

You may also like...

error: nah :p~